Welcome Guest ( Log In | Register )

> И неформату есть предел.

Рэп/хип-хоп/шансон/поп удаляются. Для них есть свои порталы.

> Король И Шут - Акустический Альбом (1999), Punk Rock (D5)
post Feb 8 2018, 22:46:50
Post #1
BAN
RO till
Feb 18 2018, 18:47:57



(IMG:http://metalarea.org/images/audiocovers/2018_Feb/acov_tid301683_thumb.jpg)

*Artist: Король И Шут
*Album: Акустический Альбом
*Year: 1999
*Genre: Punk Rock
*Country: Russian Federation (IMG:http://metalarea.org/forum/style_images/flags/Russian%20Federation.png)
*Format: mp3@CBR320kbps
*Size: 116MB

Tracklist:
01. Кукла колдуна
02. Наблюдатель
03. Бедняжка
04. Прыгну со скалы
05. Девушка и Граф
06. Песня мушкетеров
07. Тяни!
08. Утренний рассвет
09. Сосиска
10. Карапуз
11. Спятил отец
12. Ведьма и Осел
13. Екатерина
14. Прерванная любовь, или Арбузная корка
15. Мотоцикл
16. Голые коки
17. Забытые ботинки
******************************
Total playing time: 52:47

(IMG:http://metalarea.org/images/youtube.png)

Technical info
(IMG:http://metalarea.org/images/spectrogram/2018_Feb/9467dcca0e188ef5b80f833c16d8ec8c.png)
Input File: 01. Кукла колдуна.mp3
Channels : 2
Sample Rate : 44100
Precision : 16-bit
Duration : 00:03:22.13 = 8913977 samples = 15159.8 CDDA sectors
File Size : 8.09M
Bit Rate : 320k
Sample Encoding: MPEG audio (layer I, II or III)
Comments :
Title=Кукла колдуна
Artist=Король и Шут
Album=Акустический альбом (2000, Nox Music)
Tracknumber=01/17
Year=1999
Genre=Punk Rock



Register


Thanks:
(2) Aresson, gwar,
Вернуться к началу страницы
  Insert nick Quick quote
+Цитировать сообщение
 
Создать новую тему
Replies (1 - 2)
post Feb 9 2018, 10:50:04
Post #2
BAN
RO till
Feb 18 2018, 18:47:57



Шикарнейший совершенно альбом! Хит на хите, шикарная лирика, по музыке совершенная победа, мелодически самый продуманный и разнообразный альбом наравне со Сказкой. Кукла, Скала, Тяни (IMG:style_emoticons/default/pray.gif) В свое время был на кассете, которую в школе попросили дать послушать и так и не отдали, наверное, понравилось очень. (IMG:style_emoticons/default/1488.gif)

@320

Register
Вернуться к началу страницы
  Insert nick Quick quote
+Цитировать сообщение
post Feb 9 2018, 12:52:16
Post #3
BAN
RO till
Feb 18 2018, 18:47:57



Одна из лучших их песен, бомбический хит (IMG:style_emoticons/default/pray.gif) и адское исполнение!

Вернуться к началу страницы
  Insert nick Quick quote
+Цитировать сообщение

ОтветитьСоздать новую тему
1 User(s) are reading this topic (1 Guests and 0 Anonymous Users)
0 Members:

 



- Lo-Fi Version Support form
Copyrights and abuse reports form
Time is now: 17th February 2018 - 23:54:08