Welcome Guest ( Log In | Register )

> И неформату есть предел.

Рэп/хип-хоп/шансон/поп удаляются. Для них есть свои порталы.

> Король И Шут - Камнем По Голове (1996), Punk Rock (D5)
post Feb 8 2018, 22:53:51
Post #1

Правь статус, ####!111
**************
Group: Металариец
Posts: 33,564
Releases: 489
On Forums: 9 years 2 months
Thanks: 25586 time(s)
Russian Federation


(IMG:http://metalarea.org/images/audiocovers/2018_Feb/acov_tid301685_thumb.jpg)

*Artist: Король И Шут
*Album: Камнем По Голове
*Year: 1996
*Genre: Punk Rock
*Country: Russian Federation (IMG:http://metalarea.org/forum/style_images/flags/Russian%20Federation.png)
*Format: mp3@CBR320kbps
*Size: 115MB

Tracklist:
01. Смельчак и ветер
02. Проказник скоморох
03. Верная жена
04. Садовник
05. Блуждают тени
06. Внезапная голова
07. Шар голубой (автор неизвестен)
08. Злодей и шапка
09. От женщин кругом голова
10. Рыбак
11. Мотоцикл
12. Холодное тело
13. Дурак и молния
14. Леший обиделся
15. Два вора и монета
16. Любовь и пропеллер
17. Камнем по голове
18. С тех пор как он ушел
19. В доме суета
20. Лесные разбойники
21. Мария
******************************
Total playing time: 52:46

(IMG:http://metalarea.org/images/youtube.png)

Technical info
(IMG:http://metalarea.org/images/spectrogram/2018_Feb/e67b7358314ae2dbb8efa51f6a54758f.png)
Input File: 01. Смельчак и ветер.mp3
Channels : 2
Sample Rate : 44100
Precision : 16-bit
Duration : 00:03:01.13 = 7987701 samples = 13584.5 CDDA sectors
File Size : 7.25M
Bit Rate : 320k
Sample Encoding: MPEG audio (layer I, II or III)
Comments :
Title=Смельчак и ветер
Artist=Король и Шут
Album=Камнем по Голове (1999, Manchester Files)
Tracknumber=01/21
Year=1996
Genre=Punk Rock



Register


Thanks:
(2) Aresson, gwar,
Go to the top of the page
  Insert nick Quick quote
+Quote Post
 
Start new topic
Replies (1 - 4)
post Feb 9 2018, 11:10:32
Post #2

Правь статус, ####!111
**************
Group: Металариец
Posts: 33,564
Releases: 489
On Forums: 9 years 2 months
Thanks: 25586 time(s)
Russian Federation


@320

Register
Go to the top of the page
  Insert nick Quick quote
+Quote Post
post Feb 9 2018, 11:36:50
Post #3

Попсовик от брутала
**************
Group: Металариец
Posts: 6,091
Releases: 59
From: Минск
On Forums: 9 years 8 months
Thanks: 4932 time(s)
Belarus


Я далек от мнения, что КиШ с годами сильно испортились. Конечно, в поздних альбомах было много проходняка, хотя закончили они очень хорошо, да и стиль стал у них интереснее, чем в начале пути. Но если заставят выбирать лучший альбом, наверное, назову этот.


Thanks:
Go to the top of the page
  Insert nick Quick quote
+Quote Post
post Feb 9 2018, 11:52:35
Post #4

Правь статус, ####!111
**************
Group: Металариец
Posts: 33,564
Releases: 489
On Forums: 9 years 2 months
Thanks: 25586 time(s)
Russian Federation


Вот кстати да, многим очень прут их поздние работы. Люди находят их интереснее и продуманнее первоначального творчества, хотя таких и меньшинство. Похвально и в принципе логично, что группа не могла в 2010-х играть то же, что и в конце 90-х.
Go to the top of the page
  Insert nick Quick quote
+Quote Post
post Feb 9 2018, 12:49:18
Post #5

Правь статус, ####!111
**************
Group: Металариец
Posts: 33,564
Releases: 489
On Forums: 9 years 2 months
Thanks: 25586 time(s)
Russian Federation


(IMG:style_emoticons/default/pray.gif) (IMG:style_emoticons/default/metaler.gif)

Go to the top of the page
  Insert nick Quick quote
+Quote Post

Reply to this topicStart new topic
1 User(s) are reading this topic (1 Guests and 0 Anonymous Users)
0 Members:

 



- Lo-Fi Version Support form
Copyrights and abuse reports form
Time is now: 20th August 2018 - 15:50:32