Welcome Guest ( Log In | Register )

> И неформату есть предел.

Рэп/хип-хоп/шансон/поп удаляются. Для них есть свои порталы.

> Король И Шут - Король И Шут (Будь как дома, путник) (1997), Punk Rock (D5)
post Feb 8 2018, 22:58:48
Post #1

Правь статус, ####!111
**************
Group: Металариец
Posts: 34,584
Releases: 504
On Forums: 9 years 5 months
Thanks: 26700 time(s)
Russian Federation


(IMG:http://metalarea.org/images/audiocovers/2018_Feb/acov_tid301686_thumb.jpeg)

*Artist: Король И Шут
*Album: Король И Шут (Будь как дома, путник)
*Year: 1997
*Genre: Punk Rock
*Country: Russian Federation (IMG:http://metalarea.org/forum/style_images/flags/Russian%20Federation.png)
*Format: mp3@CBR320kbps
*Size: 105MB

Tracklist:
01. Король и Шут
02. Два друга и разбойники
03. Сапоги мертвеца
04. Охотник
05. Паника в селе
06. Истинный убийца
07. Лесник
08. Помоги мне!
09. История о мертвой женщине
10. Кукольный театр
11. Валет и Дама
12. Веселые тролли
13. Он не знает, что такое жизнь!
14. Отец и маски
15. Сказка про дракона
16. Инструмент
17. Собрание
******************************
Total playing time: 49:02

(IMG:http://metalarea.org/images/youtube.png)

Technical info
(IMG:http://metalarea.org/images/spectrogram/2018_Feb/03e8b38d499e81e1f96064258c852bb4.png)
Input File: 01. Король и Шут.mp3
Channels : 2
Sample Rate : 44100
Precision : 16-bit
Duration : 00:02:41.61 = 7127045 samples = 12120.8 CDDA sectors
File Size : 6.47M
Bit Rate : 320k
Sample Encoding: MPEG audio (layer I, II or III)
Comments :
Title=Король и Шут
Artist=Король и Шут
Album=Будь как дома, Путник… (2000, Nox Music)
Tracknumber=01/17
Year=1996
Genre=Punk Rock



Register


Thanks:
(2) Aresson, gwar,
Go to the top of the page
  Insert nick Quick quote
+Quote Post
 
Start new topic
Replies (1 - 7)
post Feb 9 2018, 11:08:59
Post #2

Правь статус, ####!111
**************
Group: Металариец
Posts: 34,584
Releases: 504
On Forums: 9 years 5 months
Thanks: 26700 time(s)
Russian Federation


(IMG:style_emoticons/default/25.gif) (IMG:style_emoticons/default/metaler.gif)

@320

Register
Go to the top of the page
  Insert nick Quick quote
+Quote Post
post Feb 9 2018, 12:59:23
Post #3

Правь статус, ####!111
**************
Group: Металариец
Posts: 34,584
Releases: 504
On Forums: 9 years 5 months
Thanks: 26700 time(s)
Russian Federation


Одна из самых адских песен!!! Угарнейшее исполнение!!!

Go to the top of the page
  Insert nick Quick quote
+Quote Post
post Feb 9 2018, 13:09:24
Post #4

Правь статус, ####!111
**************
Group: Металариец
Posts: 34,584
Releases: 504
On Forums: 9 years 5 months
Thanks: 26700 time(s)
Russian Federation


Кручу верчу по кругу!!! Да и вообще видос Ели Мясо Мужыки походу самое крутое у них, особенно хорошо там передана атмосфера угара, ну еще Нашествие 2013 бомбовое, но там больше бенефис Горшочка.
Go to the top of the page
  Insert nick Quick quote
+Quote Post
post Feb 9 2018, 13:09:55
Post #5
BAN
Banned till
Dec 4 2018, 20:07:17



Сам альбом-то чё не заливаешь?
Go to the top of the page
  Insert nick Quick quote
+Quote Post
post Feb 9 2018, 13:23:12
Post #6

Правь статус, ####!111
**************
Group: Металариец
Posts: 34,584
Releases: 504
On Forums: 9 years 5 months
Thanks: 26700 time(s)
Russian Federation


ЦИТАТА(Aresson @ Feb 9 2018, 16:09:55) *
Сам альбом-то чё не заливаешь?


А надо? Там так то одна всего новая песня, но могу ливануть, не проблема! (IMG:style_emoticons/default/25.gif)
Go to the top of the page
  Insert nick Quick quote
+Quote Post
post Feb 9 2018, 13:26:05
Post #7
BAN
Banned till
Dec 4 2018, 20:07:17



ЦИТАТА(vosmidesijatye @ 9th February 2018 - 15:23:12) *
А надо?

лей лей, там и старые немного подругому сыграны. И помоему больше, чем одна. Кроме титулки, вроде, Прыгну со скалы. Бл, не помню уже нихрена. По треклистам всех альбомов, которые слушал, и половину песен я не могу вспомнить


Thanks:
Go to the top of the page
  Insert nick Quick quote
+Quote Post
post Feb 9 2018, 13:33:58
Post #8

Правь статус, ####!111
**************
Group: Металариец
Posts: 34,584
Releases: 504
On Forums: 9 years 5 months
Thanks: 26700 time(s)
Russian Federation


Ща организую!
Go to the top of the page
  Insert nick Quick quote
+Quote Post

Reply to this topicStart new topic
1 User(s) are reading this topic (1 Guests and 0 Anonymous Users)
0 Members:

 



- Lo-Fi Version Support form
Copyrights and abuse reports form
Time is now: 18th November 2018 - 08:42:47