Welcome Guest ( Log In | Register )

> И неформату есть предел.

Рэп/хип-хоп/шансон/поп удаляются. Для них есть свои порталы.

> Король И Шут - Как В Старой Сказке (2001), Punk Rock (D5)
post Feb 8 2018, 23:08:56
Post #1

Правь статус, ####!111
**************
Group: Металариец
Posts: 34,734
Releases: 504
On Forums: 9 years 5 months
Thanks: 26760 time(s)
Russian Federation


(IMG:http://metalarea.org/images/audiocovers/2018_Feb/acov_tid301690_thumb.jpg)

*Artist: Король И Шут
*Album: Как В Старой Сказке
*Year: 2001
*Genre: Punk Rock
*Country: Russian Federation (IMG:http://metalarea.org/forum/style_images/flags/Russian%20Federation.png)
*Format: mp3@CBR320kbps
*Size: 124MB

Tracklist:
01. Гимн шута
02. Проклятый старый дом
03. Тайна хозяйки старинных часов
04. Кузьма и барин
05. Пират
06. Скотный двор
07. Возвращение колдуна
08. Зловещий кузен
09. Ответ
10. Рогатый
11. Двухголовый отпрыск
12. Два монаха в одну ночь
13. Кто это все придумал
14. Пивной череп
15. Парень и леший
16. Похороны панка
17. Воспоминания о былой любви
******************************
Total playing time: 56:55

(IMG:http://metalarea.org/images/youtube.png)

Technical info
(IMG:http://metalarea.org/images/spectrogram/2018_Feb/ad03e9a8e75240817c50d6054105e585.png)
Input File: 13. Кто это все придумал.mp3
Channels : 2
Sample Rate : 44100
Precision : 16-bit
Duration : 00:02:57.00 = 7805656 samples = 13274.9 CDDA sectors
File Size : 7.08M
Bit Rate : 320k
Sample Encoding: MPEG audio (layer I, II or III)
Comments :
Title=Кто это все придумал
Artist=Король и Шут
Album=Как в старой сказке (2001, Мистерия Звука)
Tracknumber=13/17
Year=2001
Genre=Punk Rock



Register


Thanks:
(2) Aresson, gwar,
Go to the top of the page
  Insert nick Quick quote
+Quote Post
 
Start new topic
Replies (1 - 4)
post Feb 9 2018, 10:57:37
Post #2

Правь статус, ####!111
**************
Group: Металариец
Posts: 34,734
Releases: 504
On Forums: 9 years 5 months
Thanks: 26760 time(s)
Russian Federation


Шикарнейший альбом! Вершина группы (музыкально и лирически) наряду с Акустическим. Из 17 песен большая половина - просто взрывные хитяры. Дом, Хозяйка, Колдун, Ответ, Монахи, Придумал, Любовь (IMG:style_emoticons/default/pray.gif) Один раз послушав - уже не забудешь. Регулярно возвращаюсь к этому без сомнения культовому релизу на протяжении уже многих лет!!!

@320

Register
Go to the top of the page
  Insert nick Quick quote
+Quote Post
post Feb 9 2018, 12:57:29
Post #3

Правь статус, ####!111
**************
Group: Металариец
Posts: 34,734
Releases: 504
On Forums: 9 years 5 months
Thanks: 26760 time(s)
Russian Federation


Просто бомбическое исполнение!

Go to the top of the page
  Insert nick Quick quote
+Quote Post
post Feb 9 2018, 13:01:10
Post #4

Попсовик от брутала
**************
Group: Металариец
Posts: 6,357
Releases: 60
From: Минск
On Forums: 9 years 11 months
Thanks: 5223 time(s)
Belarus


ЦИТАТА(vosmidesijatye @ 9th February 2018 - 14:57:29) *
Просто бомбическое исполнение!

01:30 менты стали кучей и концерт смотрят (IMG:style_emoticons/default/15.gif)


Thanks:
Go to the top of the page
  Insert nick Quick quote
+Quote Post
post Oct 30 2018, 19:07:09
Post #5

Правь статус, ####!111
**************
Group: Металариец
Posts: 34,734
Releases: 504
On Forums: 9 years 5 months
Thanks: 26760 time(s)
Russian Federation


Для желающих окунуться в то самое, вот полное недавнее выступление:



Трэки следующие:

2:50 - Минута молчания
3:40 - Король и Шут
6:30 - Ром
9:20 - Мария
13:05 - Тайна хозяйки старинных часов
16:45 - Отец и маски
20:10 - Дурак и молния
22:30 - Месть Гарри
26:00 - Истинный убийца
28:15 - Охотник
31:50 - Два друга и разбойники
34:50 - Некромант
37:40 - Рогатый
41:35 - Воспоминанания о былой любви (instrumental)
44:55 - Девушка и Граф (Сашенька)
49:45 - От женщин кругом голова (Сашенька и Балу)
51:45 - Мастер приглашает в гости (Балу)
55:05 - Шар голубой (Балу)
56:45 - Кукольный театр
59:55 - Внезапная голова
1:02:30 - Два вора и монета
1:04:50 - Валет и Дама
1:08:40 - Жаль нет ружья
1:13:05 - Двое против всех
1:17:05 - Мёртвый анархист
1:21:55 - Танец злобного гения
1:27:00 - Невеста палача
1:31:20 - Арбузная корка (instrumental)
1:36:10 - Кукла колдуна
1:40:00 - Прыгну со скалы
1:44:15 - Гимн Шута
1:50:30 - Проклятый старый дом (Балу)
1:55:20 - Камнем по голове (Балу)
1:58:40 - Воспоминания о былой любви (голограмма, Балу)
2:03:50 - Ели мясо мужики (голограмма, Балу)
2:06:30 - Лесник (голограмма, Балу)

Для фонатов олдскула это как бальзам на душу (IMG:style_emoticons/default/25.gif)
Go to the top of the page
  Insert nick Quick quote
+Quote Post

Reply to this topicStart new topic
1 User(s) are reading this topic (1 Guests and 0 Anonymous Users)
0 Members:

 



- Lo-Fi Version Support form
Copyrights and abuse reports form
Time is now: 21st November 2018 - 18:43:42