Welcome Guest ( Log In | Register )

> И неформату есть предел.

Рэп/хип-хоп/шансон/поп удаляются. Для них есть свои порталы.

> Король И Шут - Как В Старой Сказке (2001), Punk Rock (D5)
post Feb 8 2018, 23:08:56
Post #1

Правь статус, ####!111
**************
Group: Металариец
Posts: 30,441
Releases: 470
On Forums: 8 years 8 months
Thanks: 23395 time(s)
Russian Federation


(IMG:http://metalarea.org/images/audiocovers/2018_Feb/acov_tid301690_thumb.jpg)

*Artist: Король И Шут
*Album: Как В Старой Сказке
*Year: 2001
*Genre: Punk Rock
*Country: Russian Federation (IMG:http://metalarea.org/forum/style_images/flags/Russian%20Federation.png)
*Format: mp3@CBR320kbps
*Size: 124MB

Tracklist:
01. Гимн шута
02. Проклятый старый дом
03. Тайна хозяйки старинных часов
04. Кузьма и барин
05. Пират
06. Скотный двор
07. Возвращение колдуна
08. Зловещий кузен
09. Ответ
10. Рогатый
11. Двухголовый отпрыск
12. Два монаха в одну ночь
13. Кто это все придумал
14. Пивной череп
15. Парень и леший
16. Похороны панка
17. Воспоминания о былой любви
******************************
Total playing time: 56:55

(IMG:http://metalarea.org/images/youtube.png)

Technical info
(IMG:http://metalarea.org/images/spectrogram/2018_Feb/ad03e9a8e75240817c50d6054105e585.png)
Input File: 13. Кто это все придумал.mp3
Channels : 2
Sample Rate : 44100
Precision : 16-bit
Duration : 00:02:57.00 = 7805656 samples = 13274.9 CDDA sectors
File Size : 7.08M
Bit Rate : 320k
Sample Encoding: MPEG audio (layer I, II or III)
Comments :
Title=Кто это все придумал
Artist=Король и Шут
Album=Как в старой сказке (2001, Мистерия Звука)
Tracknumber=13/17
Year=2001
Genre=Punk Rock



Register


Thanks:
(2) Aresson, gwar,
Вернуться к началу страницы
  Insert nick Quick quote
+Цитировать сообщение
 
Создать новую тему
Replies (1 - 3)
post Feb 9 2018, 10:57:37
Post #2

Правь статус, ####!111
**************
Group: Металариец
Posts: 30,441
Releases: 470
On Forums: 8 years 8 months
Thanks: 23395 time(s)
Russian Federation


Шикарнейший альбом! Вершина группы (музыкально и лирически) наряду с Акустическим. Из 17 песен большая половина - просто взрывные хитяры. Дом, Хозяйка, Колдун, Ответ, Монахи, Придумал, Любовь (IMG:style_emoticons/default/pray.gif) Один раз послушав - уже не забудешь. Регулярно возвращаюсь к этому без сомнения культовому релизу на протяжении уже многих лет!!!

@320

Register
Вернуться к началу страницы
  Insert nick Quick quote
+Цитировать сообщение
post Feb 9 2018, 12:57:29
Post #3

Правь статус, ####!111
**************
Group: Металариец
Posts: 30,441
Releases: 470
On Forums: 8 years 8 months
Thanks: 23395 time(s)
Russian Federation


Просто бомбическое исполнение!

Вернуться к началу страницы
  Insert nick Quick quote
+Цитировать сообщение
post Feb 9 2018, 13:01:10
Post #4

Попсовик от брутала
**************
Group: Металариец
Posts: 5,615
Releases: 51
From: Минск
On Forums: 9 years 2 months
Thanks: 4477 time(s)
Belarus


ЦИТАТА(vosmidesijatye @ 9th February 2018 - 14:57:29) *
Просто бомбическое исполнение!

01:30 менты стали кучей и концерт смотрят (IMG:style_emoticons/default/15.gif)


Thanks:
Вернуться к началу страницы
  Insert nick Quick quote
+Цитировать сообщение

ОтветитьСоздать новую тему
2 User(s) are reading this topic (2 Guests and 0 Anonymous Users)
0 Members:

 



- Lo-Fi Version Support form
Copyrights and abuse reports form
Time is now: 25th February 2018 - 12:54:47