Welcome Guest ( Log In | Register )

> И неформату есть предел.

Рэп/хип-хоп/шансон/поп удаляются. Для них есть свои порталы.

 
Reply to this topicStart new topic
> Chaos Echœs - The Unfathomable [ep] (2017), Dark Ambient (D6)
post Feb 9 2018, 10:26:48
Post #1

...
Group Icon
Group: S-moderation team
Posts: 6,259
Releases: 1276
On Forums: 7 years 4 months
Thanks: 31853 time(s)
Croatia


(IMG:http://metalarea.org/images/audiocovers/2018_Feb/acov_tid301700_thumb.jpg)

*Artist: Chaos Echœs
*Album: The Unfathomable [ep]
*Year: 2017
*Genre: Dark Ambient
*Country: France (IMG:http://metalarea.org/forum/style_images/flags/France.png)
*Format: mp3@CBR320kbps
*Size: 36MB

Tracklist:
1. Interzone VII: Unfathomable (Drifting on Land and Water) 15:38
******************************
Total playing time: 15:38



Extended info
Improvised and recorded in Paris in 2015.
Mixed in Nancy, France in February 2016.
Mastered at Plotkinworks, Bethlehem, Pensnsylvania, US, June 2016.
Released by Nuclear War Now! Productions.


Technical info
(IMG:http://metalarea.org/images/spectrogram/2018_Feb/4c78abce6a140b01b61d9194e2e14929.png)
Input File: 01 The Unfathomable.mp3
Channels : 2
Sample Rate : 44100
Precision : 16-bit
Duration : 00:15:38.69 = 41396361 samples = 70402 CDDA sectors
File Size : 37.5M
Bit Rate : 320k
Sample Encoding: MPEG audio (layer I, II or III)
Comments :
Title=The Unfathomable
Artist=Chaos EchЕ“s
Album=The Unfathomable EP
Tracknumber=01/1
Year=2017



Register


Go to the top of the page
  Insert nick Quick quote
+Quote Post

Reply to this topicStart new topic
2 User(s) are reading this topic (2 Guests and 0 Anonymous Users)
0 Members:

 



- Lo-Fi Version Support form
Copyrights and abuse reports form
Time is now: 16th July 2018 - 05:57:38