Welcome Guest ( Log In | Register )

> И неформату есть предел.

Рэп/хип-хоп/шансон/поп удаляются. Для них есть свои порталы.

> Chaos Echœs - The Unfathomable [ep] (2017), Dark Ambient (D6)
post Feb 9 2018, 10:26:48
Post #1

...
Group Icon
Group: S-moderation team
Posts: 5,434
Releases: 1166
On Forums: 6 years 11 months
Thanks: 27109 time(s)
Unknown


(IMG:http://metalarea.org/images/audiocovers/2018_Feb/acov_tid301700_thumb.jpg)

*Artist: Chaos Echœs
*Album: The Unfathomable [ep]
*Year: 2017
*Genre: Dark Ambient
*Country: France (IMG:http://metalarea.org/forum/style_images/flags/France.png)
*Format: mp3@CBR320kbps
*Size: 36MB

Tracklist:
1. Interzone VII: Unfathomable (Drifting on Land and Water) 15:38
******************************
Total playing time: 15:38



Extended info
Improvised and recorded in Paris in 2015.
Mixed in Nancy, France in February 2016.
Mastered at Plotkinworks, Bethlehem, Pensnsylvania, US, June 2016.
Released by Nuclear War Now! Productions.


Technical info
(IMG:http://metalarea.org/images/spectrogram/2018_Feb/4c78abce6a140b01b61d9194e2e14929.png)
Input File: 01 The Unfathomable.mp3
Channels : 2
Sample Rate : 44100
Precision : 16-bit
Duration : 00:15:38.69 = 41396361 samples = 70402 CDDA sectors
File Size : 37.5M
Bit Rate : 320k
Sample Encoding: MPEG audio (layer I, II or III)
Comments :
Title=The Unfathomable
Artist=Chaos EchЕ“s
Album=The Unfathomable EP
Tracknumber=01/1
Year=2017



Register


Вернуться к началу страницы
  Insert nick Quick quote
+Цитировать сообщение
 
Создать новую тему
Replies (1 - 1)
post Feb 17 2018, 23:01:57
Post #2

Четыре Литра
****
Group: Металариец
Posts: 306
Releases: 1
On Forums: 8 years 11 months
Thanks: 562 time(s)
Serbia


This is vinyl rip?
Вернуться к началу страницы
  Insert nick Quick quote
+Цитировать сообщение

ОтветитьСоздать новую тему
2 User(s) are reading this topic (2 Guests and 0 Anonymous Users)
0 Members:

 



- Lo-Fi Version Support form
Copyrights and abuse reports form
Time is now: 25th February 2018 - 12:50:14