Welcome Guest ( Log In | Register )

> И неформату есть предел.

Рэп/хип-хоп/шансон/поп удаляются. Для них есть свои порталы.

 
ОтветитьСоздать новую тему
> Husere Grav - All Of Them Witches [ep] (2008), Experimental/Noise/Dark Ambient
post Feb 9 2018, 13:10:16
Post #1

...
Group Icon
Group: S-moderation team
Posts: 5,434
Releases: 1166
On Forums: 6 years 11 months
Thanks: 27112 time(s)
Unknown


(IMG:http://metalarea.org/images/audiocovers/2018_Feb/acov_tid301722_thumb.jpg)

*Artist: Husere Grav
*Album: All Of Them Witches [ep]
*Year: 2008
*Genre: Experimental/Noise/Dark Ambient
*Country: United States (IMG:http://metalarea.org/forum/style_images/flags/United%20States.png)
*Format: mp3@CBR192kbps
*Size: 38MB

Tracklist:
1. Abandoned Castle 06:07
2. Magnetic Shores 04:00
3. Rurality 03:06
4. Just Before Dawn 02:27
5. Agents in Caskets 03:57
6. Put Her in the Ground 08:16
******************************
Total playing time: 27:53

Extended info
Anathema Sound cassette, 50 copies.


Technical info
(IMG:http://metalarea.org/images/spectrogram/2018_Feb/2ababfdf699d598bc881bb1bde5b2ee9.png)
Input File: 01 Abandoned Castle.mp3
Channels : 2
Sample Rate : 44100
Precision : 16-bit
Duration : 00:06:07.99 = 16228271 samples = 27599.1 CDDA sectors
File Size : 9.14M
Bit Rate : 199k
Sample Encoding: MPEG audio (layer I, II or III)
Comments :
Title=Abandoned Castle
Artist=Husere Grav
Album=All Of Them Witches
Tracknumber=01
Year=2008



Register


Вернуться к началу страницы
  Insert nick Quick quote
+Цитировать сообщение

ОтветитьСоздать новую тему
1 User(s) are reading this topic (1 Guests and 0 Anonymous Users)
0 Members:

 



- Lo-Fi Version Support form
Copyrights and abuse reports form
Time is now: 25th February 2018 - 12:56:15