Welcome Guest ( Log In | Register )

> И неформату есть предел.

Рэп/хип-хоп/шансон/поп удаляются. Для них есть свои порталы.

> Король И Шут - Ели Мясо Мужики [live] (1999), Punk Rock (D13)
post Feb 9 2018, 14:12:01
Post #1

Правь статус, ####!111
**************
Group: Металариец
Posts: 30,441
Releases: 470
On Forums: 8 years 8 months
Thanks: 23395 time(s)
Russian Federation


(IMG:http://metalarea.org/images/audiocovers/2018_Feb/acov_tid301726_thumb.jpg)

*Artist: Король И Шут
*Album: Ели Мясо Мужики [live]
*Year: 1999
*Genre: Punk Rock
*Country: Russian Federation (IMG:http://metalarea.org/forum/style_images/flags/Russian%20Federation.png)
*Format: mp3@CBR320kbps
*Size: 127MB

Tracklist:
01. Ели мясо мужики
02. Охотник
03. Отец и маски
04. Валет и дама
05. Садовник
06. Холодное тело
07. Леший обиделся
08. Дурак и молния
09. Два вора и монета
10. Вячеслав
11. Песня мушкетеров
12. Веселые тролли
13. Мария
14. Шар голубой
15. Мотоцикл
16. Пьеса
17. Прыгну со скалы
18. Помоги мне!
19. Блуждают тени
20. Проказник скоморох
21. Лесник
22. Сапоги
23. Камнем по голове
******************************
Total playing time: 58:18

(IMG:http://metalarea.org/images/youtube.png)

Technical info
(IMG:http://metalarea.org/images/spectrogram/2018_Feb/cee494d0605c738c549f16627539f41e.png)
Input File: 01. Ели мясо мужики.mp3
Channels : 2
Sample Rate : 44100
Precision : 16-bit
Duration : 00:02:40.33 = 7070597 samples = 12024.8 CDDA sectors
File Size : 6.41M
Bit Rate : 320k
Sample Encoding: MPEG audio (layer I, II or III)
Comments :
Title=Ели мясо мужики
Artist=Король и Шут
Album=Ели Мясо Мужики (2003, Manchester Files)
Tracknumber=01/23
Year=1999
Genre=Punk Rock



Register


Thanks:
(1) Aresson,
Вернуться к началу страницы
  Insert nick Quick quote
+Цитировать сообщение
 
Создать новую тему
Replies (1 - 2)
post Feb 9 2018, 14:50:14
Post #2

Правь статус, ####!111
**************
Group: Металариец
Posts: 30,441
Releases: 470
On Forums: 8 years 8 months
Thanks: 23395 time(s)
Russian Federation


@320

Register




Адское мошево, угар и дебош в Орлёнке (IMG:style_emoticons/default/1488.gif)
Вернуться к началу страницы
  Insert nick Quick quote
+Цитировать сообщение
post Feb 11 2018, 09:11:29
Post #3

Литр
*
Group: Подсевший
Posts: 95
Releases: 0
On Forums: 10 years 1 month
Thanks: 14 time(s)
Russian Federation


стал слушать кишей только после прослушки сего альбома, другие не пёрли (не было мощи, скорости и угара), пока его не послушал
Вернуться к началу страницы
  Insert nick Quick quote
+Цитировать сообщение

ОтветитьСоздать новую тему
2 User(s) are reading this topic (2 Guests and 0 Anonymous Users)
0 Members:

 



- Lo-Fi Version Support form
Copyrights and abuse reports form
Time is now: 25th February 2018 - 12:56:48