Welcome Guest ( Log In | Register )

> И неформату есть предел.

Рэп/хип-хоп/шансон/поп удаляются. Для них есть свои порталы.

> Old Tower - Stellary Wisdom (2018), Dungeon Synth
post Feb 9 2018, 17:55:02
Post #1

Маньяк
**********
Group: Металариец
Posts: 1,353
Releases: 1051
From: Prešov
On Forums: 4 years 4 months
Thanks: 24185 time(s)
Slovakia


(IMG:http://metalarea.org/images/audiocovers/2018_Feb/acov_tid301739_thumb.jpg)

*Artist: Old Tower
*Album: Stellary Wisdom
*Year: 2018
*Genre: Dungeon Synth
*Country: Netherlands (IMG:http://metalarea.org/forum/style_images/flags/Netherlands.png)
*Format: mp3@CBR320kbps
*Size: 71MB

Tracklist:
1. Deep Within My Somber Castle Halls 15:21
2. Stellary Wisdom 15:09
******************************
Total playing time: 30:30



Extended info
Profound Lore Records ‎– PFL-198


Technical info
(IMG:http://metalarea.org/images/spectrogram/2018_Feb/6b9f32a83753693cf5b89db757572347.png)
Input File: 01. Deep Within My Somber Castle Halls.mp3
Channels : 2
Sample Rate : 44100
Precision : 16-bit
Duration : 00:15:24.59 = 40774375 samples = 69344.2 CDDA sectors
File Size : 37.0M
Bit Rate : 320k
Sample Encoding: MPEG audio (layer I, II or III)
Comments :
Title=Deep Within My Somber Castle Halls
Artist=Old Tower
Album=Stellary Wisdom
Tracknumber=01/02
Year=2018
Genre=Dungeon Synth
Discnumber=1/1



Register


Go to the top of the page
  Insert nick Quick quote
+Quote Post
 
Start new topic
Replies (1 - 2)
post Feb 10 2018, 11:04:52
Post #2

а ты попал в даунтаун
*********
Group: Металариец
Posts: 982
Releases: 46
From: Москва
On Forums: 9 years 3 months
Thanks: 2834 time(s)
Russian Federation


Я правильно понимаю, что проект связан с Blood Tyrant?


Thanks:
Go to the top of the page
  Insert nick Quick quote
+Quote Post
post Feb 10 2018, 11:27:15
Post #3

...
Group Icon
Group: S-moderation team
Posts: 6,507
Releases: 1275
On Forums: 7 years 5 months
Thanks: 32678 time(s)
Croatia


QUOTE(acerbus @ Feb 10 2018, 11:04:52) *
Я правильно понимаю, что проект связан с Blood Tyrant?
Yes, Old Tower is project of The Wampyric Specter. It's not listed on metal archives but here's an interview with him, unfortunately on French: http://www.scholomance-webzine.com/2017/06...ower-blood.html


Go to the top of the page
  Insert nick Quick quote
+Quote Post

Reply to this topicStart new topic
1 User(s) are reading this topic (1 Guests and 0 Anonymous Users)
0 Members:

 



- Lo-Fi Version Support form
Copyrights and abuse reports form
Time is now: 20th August 2018 - 09:47:20