Welcome Guest ( Log In | Register )

> И неформату есть предел.

Рэп/хип-хоп/шансон/поп удаляются. Для них есть свои порталы.

 
Reply to this topicStart new topic
> Thangorodrim - Akallabêth [ep] (2018), Dungeon Synth/Ambient (D4)
post Feb 10 2018, 10:47:14
Post #1

𝕻𝕬𝕹𝕬𝕮𝕰𝕬
******
Group: Металариец
Posts: 545
Releases: 307
On Forums: 6 years 1 month
Thanks: 4093 time(s)
Unknown


(IMG:http://metalarea.org/images/audiocovers/2018_Feb/acov_tid301766_thumb.jpg)

*Artist: Thangorodrim
*Album: Akallabêth [ep]
*Year: 2018
*Genre: Dungeon Synth/Ambient
*Country: United States (IMG:http://metalarea.org/forum/style_images/flags/United%20States.png)
*Format: mp3@CBR320kbps
*Size: 48MB

Tracklist:
1. Númenor 12:37
2. The Felling Of Nimloth 08:10
******************************
Total playing time: 20:47



Extended info
-Limited cassette edition to 100 hand-numbered copies, including a patch.


Technical info
(IMG:http://metalarea.org/images/spectrogram/2018_Feb/bdf4781a1b40c013c52072b71135c50a.png)
Input File: 02 - The Felling Of Nimloth.mp3
Channels : 2
Sample Rate : 44100
Precision : 16-bit
Duration : 00:08:11.05 = 21655129 samples = 36828.5 CDDA sectors
File Size : 19.8M
Bit Rate : 322k
Sample Encoding: MPEG audio (layer I, II or III)
Comments :
Title=The Felling Of Nimloth
Artist=Thangorodrim
Album=AkallabГЄth
Tracknumber=2
Year=2018
Genre=Dungeon Synth



Register


Go to the top of the page
  Insert nick Quick quote
+Quote Post

Reply to this topicStart new topic
2 User(s) are reading this topic (2 Guests and 0 Anonymous Users)
0 Members:

 



- Lo-Fi Version Support form
Copyrights and abuse reports form
Time is now: 16th July 2018 - 05:55:32