Welcome Guest ( Log In | Register )

> И неформату есть предел.

Рэп/хип-хоп/шансон/поп удаляются. Для них есть свои порталы.

> Княzz - Узники долины снов (2017), Rock (D6)
post Feb 12 2018, 13:53:39
Post #1

Правь статус, ####!111
**************
Group: Металариец
Posts: 33,665
Releases: 489
On Forums: 9 years 2 months
Thanks: 25623 time(s)
Russian Federation


(IMG:http://metalarea.org/images/audiocovers/2018_Feb/acov_tid301856_thumb.jpg)

*Artist: Княzz
*Album: Узники долины снов
*Year: 2017
*Genre: Rock
*Country: Russian Federation (IMG:http://metalarea.org/forum/style_images/flags/Russian%20Federation.png)
*Format: mp3@CBR320kbps
*Size: 105MB

Tracklist:
01. Призраки Там-тама
02. Рок-н-ролльный Дед Мороз
03. Наука Билли Бонса
04. Брат
05. Дурак
06. Буйство духов
07. Подруга анархиста
08. Волкодлак
09. Банник
10. Святой
11. Билли Миллиган
12. Узники Долины Снов
13. Колдун-кабан
******************************
Total playing time: 45:23

(IMG:http://metalarea.org/images/youtube.png)

Technical info
(IMG:http://metalarea.org/images/spectrogram/2018_Feb/cf4b7975eab61116ed890d81b21bf884.png)
Input File: 01. Призраки Там-тама.mp3
Channels : 2
Sample Rate : 44100
Precision : 16-bit
Duration : 00:03:31.72 = 9336808 samples = 15878.9 CDDA sectors
File Size : 8.57M
Bit Rate : 324k
Sample Encoding: MPEG audio (layer I, II or III)
Comments :
Title=Призраки Там-тама
Artist=РљРЅСЏZz
Album=Узники долины снов
Tracknumber=01
Year=2017
Genre=Punk Rock



Register


Thanks:
Go to the top of the page
  Insert nick Quick quote
+Quote Post
 
Start new topic
Replies (1 - 2)
post Feb 12 2018, 15:58:33
Post #2

Правь статус, ####!111
**************
Group: Металариец
Posts: 33,665
Releases: 489
On Forums: 9 years 2 months
Thanks: 25623 time(s)
Russian Federation


@320

Register


Колдун-Кабан (IMG:style_emoticons/default/1488.gif) вполне достойная песня. Скоро еще презентация альбома грядёт.


Thanks:
Go to the top of the page
  Insert nick Quick quote
+Quote Post
post Jun 15 2018, 14:27:49
Post #3

Правь статус, ####!111
**************
Group: Металариец
Posts: 33,665
Releases: 489
On Forums: 9 years 2 months
Thanks: 25623 time(s)
Russian Federation


Вчера переслушивал. Эх, Андрюша, прогадил все ты полимеры, Горшок в могиле крутится от твоих виршей. Есть интересные задумки, но гробится все неотточенностью, чего в КИШе не было никогда. По крайней мере с 1996 по 2001 за искл. неровного 2000 все было на отлично, а вот сольно что Горшок, что Князь сдали позиции.
Go to the top of the page
  Insert nick Quick quote
+Quote Post

Reply to this topicStart new topic
1 User(s) are reading this topic (1 Guests and 0 Anonymous Users)
0 Members:

 



- Lo-Fi Version Support form
Copyrights and abuse reports form
Time is now: 22nd August 2018 - 02:26:00