Welcome Guest ( Log In | Register )

> И неформату есть предел.

Рэп/хип-хоп/шансон/поп удаляются. Для них есть свои порталы.

> Северный Флот - Всё Внутри (2014), Rock
post Feb 12 2018, 14:17:51
Post #1

Правь статус, ####!111
**************
Group: Металариец
Posts: 34,708
Releases: 504
On Forums: 9 years 5 months
Thanks: 26751 time(s)
Russian Federation


(IMG:http://metalarea.org/images/audiocovers/2018_Feb/acov_tid301858_thumb.jpg)

*Artist: Северный Флот
*Album: Всё Внутри
*Year: 2014
*Genre: Rock
*Country: Russian Federation (IMG:http://metalarea.org/forum/style_images/flags/Russian%20Federation.png)
*Format: mp3@CBR320kbps
*Size: 85MB

Tracklist:
01. Надвигается Северный Флот
02. Рождённый убивать
03. Вперёд и вверх
04. Харон
05. Старый крысолов
06. Красные реки
07. Стрелы
08. Танцуй, король !
09. Всё внутри
******************************
Total playing time: 37:34

(IMG:http://metalarea.org/images/youtube.png)

Technical info
(IMG:http://metalarea.org/images/spectrogram/2018_Feb/74db919bc2d7fae9f5ba98af9cf0bd10.png)
Input File: 01 - Надвигается Северный Флот.mp3
Channels : 2
Sample Rate : 44100
Precision : 16-bit
Duration : 00:05:29.86 = 14546650 samples = 24739.2 CDDA sectors
File Size : 13.2M
Bit Rate : 321k
Sample Encoding: MPEG audio (layer I, II or III)
Comments :
Title=Надвигается Северный Флот
Artist=Северный Флот
Album=Всё внутри (подарочное издание)
Tracknumber=1/9
Year=2014
Genre=Rock



Register


Go to the top of the page
  Insert nick Quick quote
+Quote Post
 
Start new topic
Replies (1 - 6)
post Feb 12 2018, 15:59:14
Post #2

Правь статус, ####!111
**************
Group: Металариец
Posts: 34,708
Releases: 504
On Forums: 9 years 5 months
Thanks: 26751 time(s)
Russian Federation


@320

Register
Go to the top of the page
  Insert nick Quick quote
+Quote Post
post Feb 13 2018, 12:58:11
Post #3
BAN
Banned till
Dec 4 2018, 20:07:17



в каком альбоме песня про Еремея - заклинателя змей? (IMG:style_emoticons/default/1488.gif)
Go to the top of the page
  Insert nick Quick quote
+Quote Post
post Feb 13 2018, 12:59:16
Post #4

Правь статус, ####!111
**************
Group: Металариец
Posts: 34,708
Releases: 504
On Forums: 9 years 5 months
Thanks: 26751 time(s)
Russian Federation


ЦИТАТА(Aresson @ Feb 13 2018, 15:58:11) *
в каком альбоме песня про Еремея - заклинателя змей? (IMG:style_emoticons/default/1488.gif)


Это надо у Димасио спросить - он лучше всех на портале разбирается в их творчестве (IMG:style_emoticons/default/bye.gif)
Go to the top of the page
  Insert nick Quick quote
+Quote Post
post Feb 13 2018, 13:28:25
Post #5

South Of Heaven /адепт ВУДУ
**************
Group: Металариец
Posts: 13,163
Releases: 7
From: Санкт-Петербург
On Forums: 8 years 7 months
Thanks: 4805 time(s)
Russian Federation


ЦИТАТА
09. Всё внутри

Песня про МВД (IMG:style_emoticons/default/crazy.gif)

А вообще альбом совсем не понравился, может далее у них что-то интересное случится ...
Go to the top of the page
  Insert nick Quick quote
+Quote Post
post Feb 13 2018, 13:31:17
Post #6

Правь статус, ####!111
**************
Group: Металариец
Posts: 34,708
Releases: 504
On Forums: 9 years 5 months
Thanks: 26751 time(s)
Russian Federation


ЦИТАТА(avkruchinin @ Feb 13 2018, 16:28:25) *
Песня про МВД (IMG:style_emoticons/default/crazy.gif)

А вообще альбом совсем не понравился, может далее у них что-то интересное случится ...


Северный Флот - Мизантропия (2016)

Ну и на всеми нами любимом рутрэкере лежит еще ипиха от 17 года. Можешь шо найдешь для себя

И да, я еще одного Князя выложил, Княzz - Узники долины снов (2017) (IMG:style_emoticons/default/1488.gif)


альбом кстати неплохой, Дед Мороз и Кабан крутые
Go to the top of the page
  Insert nick Quick quote
+Quote Post
post Feb 13 2018, 14:23:53
Post #7

South Of Heaven /адепт ВУДУ
**************
Group: Металариец
Posts: 13,163
Releases: 7
From: Санкт-Петербург
On Forums: 8 years 7 months
Thanks: 4805 time(s)
Russian Federation


ЦИТАТА(vosmidesijatye @ Feb 13 2018, 15:31:17) *
Северный Флот - Мизантропия (2016)

Ну и на всеми нами любимом рутрэкере лежит еще ипиха от 17 года. Можешь шо найдешь для себя

И да, я еще одного Князя выложил, Княzz - Узники долины снов (2017) (IMG:style_emoticons/default/1488.gif)
альбом кстати неплохой, Дед Мороз и Кабан крутые

По нему отзывы ещё хуже, чем по дебютнику, хотя бы по отсутствию таковых (IMG:style_emoticons/default/1488.gif)

Ну а Князь как бы никак уже давно.
Go to the top of the page
  Insert nick Quick quote
+Quote Post

Reply to this topicStart new topic
1 User(s) are reading this topic (1 Guests and 0 Anonymous Users)
0 Members:

 



- Lo-Fi Version Support form
Copyrights and abuse reports form
Time is now: 20th November 2018 - 22:34:55