Welcome Guest ( Log In | Register )

> И неформату есть предел.

Рэп/хип-хоп/шансон/поп удаляются. Для них есть свои порталы.

> Северный Флот - Мизантропия (2016), Rock
post Feb 12 2018, 14:23:09
Post #1

Правь статус, ####!111
**************
Group: Металариец
Posts: 30,821
Releases: 477
On Forums: 8 years 11 months
Thanks: 23853 time(s)
Russian Federation


(IMG:http://metalarea.org/images/audiocovers/2018_Feb/acov_tid301859_thumb.jpg)

*Artist: Северный Флот
*Album: Мизантропия
*Year: 2016
*Genre: Rock
*Country: Russian Federation (IMG:http://metalarea.org/forum/style_images/flags/Russian%20Federation.png)
*Format: mp3@CBR320kbps
*Size: 82MB

Tracklist:
01. Мизантропия
02. Презирать и ненавидеть
03. Каждую ночь
04. 210
05. Революция на вылет
06. Поднимая знамя
07. Танцуй, король !
08. Любовь и время
09. Последний человек на Земле
******************************
Total playing time: 35:46

(IMG:http://metalarea.org/images/youtube.png)

Technical info
(IMG:http://metalarea.org/images/spectrogram/2018_Feb/8f234a66e8a84dc9634c75d05df3a926.png)
Input File: 01 - Мизантропия.mp3
Channels : 2
Sample Rate : 44100
Precision : 16-bit
Duration : 00:03:28.01 = 9173197 samples = 15600.7 CDDA sectors
File Size : 8.41M
Bit Rate : 323k
Sample Encoding: MPEG audio (layer I, II or III)
Comments :
Title=Мизантропия
Artist=Северный Флот
Album=Мизантропия (подарочное издание)
Tracknumber=1/9
Year=2016
Genre=Rock



Register


Thanks:
Вернуться к началу страницы
  Insert nick Quick quote
+Цитировать сообщение
 
Создать новую тему
Replies (1 - 1)
post Feb 12 2018, 16:01:02
Post #2

Правь статус, ####!111
**************
Group: Металариец
Posts: 30,821
Releases: 477
On Forums: 8 years 11 months
Thanks: 23853 time(s)
Russian Federation


@320

Register
Вернуться к началу страницы
  Insert nick Quick quote
+Цитировать сообщение

ОтветитьСоздать новую тему
1 User(s) are reading this topic (1 Guests and 0 Anonymous Users)
0 Members:

 



- Lo-Fi Version Support form
Copyrights and abuse reports form
Time is now: 23rd May 2018 - 15:56:38