Welcome Guest ( Log In | Register )

> И неформату есть предел.

Рэп/хип-хоп/шансон/поп удаляются. Для них есть свои порталы.

> Frank Zappa - The Man From Utopia (1983), Experimental/Avantgarde Rock (D20)
post Feb 12 2018, 14:57:15
Post #1

Правь статус, ####!111
**************
Group: Металариец
Posts: 33,564
Releases: 489
On Forums: 9 years 2 months
Thanks: 25586 time(s)
Russian Federation


(IMG:http://metalarea.org/images/audiocovers/2018_Feb/acov_tid301863_thumb.jpg)

*Artist: Frank Zappa
*Album: The Man From Utopia
*Year: 1983
*Genre: Experimental/Avantgarde Rock
*Country: United States (IMG:http://metalarea.org/forum/style_images/flags/United%20States.png)
*Format: mp3@CBR320kbps
*Size: 85MB

Tracklist:
01. Cocaine Decisions
02. SEX
03. Tink Walks Amok
04. The Radio is Broken
05. We Are Not Alone
06. The Dangerous Kitchen
07. The Man from Utopia Meets Mary Lou
08. Stick Together
09. The Jazz Discharge Party Hats
10. Luigi & the Wise Guys (bonus track)
11. Mōggio
******************************
Total playing time: 40:21

(IMG:http://metalarea.org/images/youtube.png)

Technical info
(IMG:http://metalarea.org/images/spectrogram/2018_Feb/09a2656246c3c5742606017a78dde43e.png)
Input File: 01 - Cocaine Decisions.mp3
Channels : 2
Sample Rate : 44100
Precision : 16-bit
Duration : 00:03:53.15 = 10281695 samples = 17485.9 CDDA sectors
File Size : 9.33M
Bit Rate : 320k
Sample Encoding: MPEG audio (layer I, II or III)
Comments :
Title=Cocaine Decisions
Artist=Frank Zappa
Album=The Man From Utopia
Tracknumber=1
Year=1983
Genre=17



Register


Thanks:
Go to the top of the page
  Insert nick Quick quote
+Quote Post
 
Start new topic
Replies (1 - 1)
post Feb 12 2018, 16:11:46
Post #2

Правь статус, ####!111
**************
Group: Металариец
Posts: 33,564
Releases: 489
On Forums: 9 years 2 months
Thanks: 25586 time(s)
Russian Federation


@320

Register


Thanks:
(1) marilin,
Go to the top of the page
  Insert nick Quick quote
+Quote Post

Reply to this topicStart new topic
1 User(s) are reading this topic (1 Guests and 0 Anonymous Users)
0 Members:

 



- Lo-Fi Version Support form
Copyrights and abuse reports form
Time is now: 20th August 2018 - 15:50:24