Welcome Guest ( Log In | Register )

> И неформату есть предел.

Рэп/хип-хоп/шансон/поп удаляются. Для них есть свои порталы.

> Frank Zappa - Ship Arriving Too Late To Save A Drowning Witch (1982), Experimental/Avantgarde Rock (D20)
post Feb 12 2018, 15:01:39
Post #1

Правь статус, ####!111
**************
Group: Металариец
Posts: 30,842
Releases: 477
On Forums: 8 years 11 months
Thanks: 23869 time(s)
Russian Federation


(IMG:http://metalarea.org/images/audiocovers/2018_Feb/acov_tid301864_thumb.jpg)

*Artist: Frank Zappa
*Album: Ship Arriving Too Late To Save A Drowning Witch
*Year: 1982
*Genre: Experimental/Avantgarde Rock
*Country: United States (IMG:http://metalarea.org/forum/style_images/flags/United%20States.png)
*Format: mp3@CBR320kbps
*Size: 73MB

Tracklist:
01. No Not Now
02. Valley Girl
03. I Come from Nowhere
04. Drowning Witch
05. Envelopes
06. Teen-Age Prostitute
******************************
Total playing time: 34:18

(IMG:http://metalarea.org/images/youtube.png)

Technical info
(IMG:http://metalarea.org/images/spectrogram/2018_Feb/d6925ec0cef460216a0ada6f106f8c64.png)
Input File: 01 - No Not Now.mp3
Channels : 2
Sample Rate : 44100
Precision : 16-bit
Duration : 00:05:49.99 = 15434603 samples = 26249.3 CDDA sectors
File Size : 14.0M
Bit Rate : 320k
Sample Encoding: MPEG audio (layer I, II or III)
Comments :
Title=No Not Now
Artist=Frank Zappa
Album=Ship Arriving Too Late to Save a Drowning Witch
Tracknumber=1
Year=1982
Genre=17



Register


Вернуться к началу страницы
  Insert nick Quick quote
+Цитировать сообщение
 
Создать новую тему
Replies (1 - 1)
post Feb 12 2018, 16:09:59
Post #2

Правь статус, ####!111
**************
Group: Металариец
Posts: 30,842
Releases: 477
On Forums: 8 years 11 months
Thanks: 23869 time(s)
Russian Federation


@320

Register


Thanks:
Вернуться к началу страницы
  Insert nick Quick quote
+Цитировать сообщение

ОтветитьСоздать новую тему
1 User(s) are reading this topic (1 Guests and 0 Anonymous Users)
0 Members:

 



- Lo-Fi Version Support form
Copyrights and abuse reports form
Time is now: 24th May 2018 - 03:30:04