Welcome Guest ( Log In | Register )

> И неформату есть предел.

Рэп/хип-хоп/шансон/поп удаляются. Для них есть свои порталы.

> Frank Zappa - Tinseltown Rebellion (1981), Experimental/Avantgarde Rock (D20)
post Feb 12 2018, 15:13:15
Post #1
BAN
Banned till
Aug 5 2018, 14:02:28



(IMG:http://metalarea.org/images/audiocovers/2018_Feb/acov_tid301866_thumb.jpg)

*Artist: Frank Zappa
*Album: Tinseltown Rebellion
*Year: 1981
*Genre: Experimental/Avantgarde Rock
*Country: United States (IMG:http://metalarea.org/forum/style_images/flags/United%20States.png)
*Format: mp3@CBR320kbps
*Size: 154MB

Tracklist:
01. Fine Girl
02. Easy Meat
03. For the Young Sophisticate
04. Love of My Life
05. I Ain't Got No Heart
06. Panty Rap
07. Tell Me You Love Me
08. Now You See It- Now You Don't
09. Dance Contest
10. The Blue Light
11. Tinseltown Rebellion
12. Pick Me, I'm Clean
13. Bamboozled by Love
14. Brown Shoes Don't Make It
15. Peaches III
******************************
Total playing time: 1:07:19

(IMG:http://metalarea.org/images/youtube.png)

Technical info
(IMG:http://metalarea.org/images/spectrogram/2018_Feb/f36984a371c5169e1eaa6d50c6907ef9.png)
Input File: 01 - Fine Girl.mp3
Channels : 2
Sample Rate : 44100
Precision : 16-bit
Duration : 00:03:30.63 = 9288695 samples = 15797.1 CDDA sectors
File Size : 8.43M
Bit Rate : 320k
Sample Encoding: MPEG audio (layer I, II or III)
Comments :
Title=Fine Girl
Artist=Frank Zappa
Album=Tinseltown Rebellion
Tracknumber=1
Year=1981
Genre=17



Register


Thanks:
Go to the top of the page
  Insert nick Quick quote
+Quote Post
 
Start new topic
Replies (1 - 1)
post Feb 12 2018, 16:04:32
Post #2
BAN
Banned till
Aug 5 2018, 14:02:28



@320

Register


Замечательный альбом (IMG:style_emoticons/default/20.gif)


Thanks:
Go to the top of the page
  Insert nick Quick quote
+Quote Post

Reply to this topicStart new topic
2 User(s) are reading this topic (2 Guests and 0 Anonymous Users)
0 Members:

 



- Lo-Fi Version Support form
Copyrights and abuse reports form
Time is now: 16th July 2018 - 05:57:51