Welcome Guest ( Log In | Register )

> И неформату есть предел.

Рэп/хип-хоп/шансон/поп удаляются. Для них есть свои порталы.

> Frank Zappa - Them Or Us (1984), Experimental/Avantgarde Rock (D20)
post Feb 12 2018, 15:17:13
Post #1

Правь статус, ####!111
**************
Group: Металариец
Posts: 30,441
Releases: 470
On Forums: 8 years 8 months
Thanks: 23395 time(s)
Russian Federation


(IMG:http://metalarea.org/images/audiocovers/2018_Feb/acov_tid301867_thumb.jpg)

*Artist: Frank Zappa
*Album: Them Or Us
*Year: 1984
*Genre: Experimental/Avantgarde Rock
*Country: United States (IMG:http://metalarea.org/forum/style_images/flags/United%20States.png)
*Format: mp3@CBR320kbps
*Size: 162MB

Tracklist:
01. The Closer You Are
02. In France
03. Ya Hozna
04. Sharleena
05. Sinister Footwear II
06. Truck Driver Divorce
07. Stevie's Spanking
08. Baby, Take Your Teeth Out
09. Marqueson's Chicken
10. Be in My Video
11. Them or Us
12. Frogs with Dirty Little Lips
13. Whippin' Post
******************************
Total playing time: 1:10:45

(IMG:http://metalarea.org/images/youtube.png)

Technical info
(IMG:http://metalarea.org/images/spectrogram/2018_Feb/ffccd6efbf8ab9602c3a0102aabfa1fd.png)
Input File: 01 - The Closer You Are.mp3
Channels : 2
Sample Rate : 44100
Precision : 16-bit
Duration : 00:02:55.00 = 7717368 samples = 13124.8 CDDA sectors
File Size : 7.00M
Bit Rate : 320k
Sample Encoding: MPEG audio (layer I, II or III)
Comments :
Title=The Closer You Are
Artist=Frank Zappa
Album=Them Or Us
Tracknumber=1
Year=1984
Genre=17



Register


Thanks:
Вернуться к началу страницы
  Insert nick Quick quote
+Цитировать сообщение
 
Создать новую тему
Replies (1 - 1)
post Feb 12 2018, 16:08:09
Post #2

Правь статус, ####!111
**************
Group: Металариец
Posts: 30,441
Releases: 470
On Forums: 8 years 8 months
Thanks: 23395 time(s)
Russian Federation


@320

Register


Thanks:
Вернуться к началу страницы
  Insert nick Quick quote
+Цитировать сообщение

ОтветитьСоздать новую тему
2 User(s) are reading this topic (2 Guests and 0 Anonymous Users)
0 Members:

 



- Lo-Fi Version Support form
Copyrights and abuse reports form
Time is now: 25th February 2018 - 12:55:04