Welcome Guest ( Log In | Register )

> И неформату есть предел.

Рэп/хип-хоп/шансон/поп удаляются. Для них есть свои порталы.

> Frank Zappa - Roxy & Elsewhere [live] (1974), Experimental/Avantgarde Rock (D24)
post Feb 12 2018, 17:50:40
Post #1

Правь статус, ####!111
**************
Group: Металариец
Posts: 34,708
Releases: 504
On Forums: 9 years 5 months
Thanks: 26751 time(s)
Russian Federation


(IMG:http://metalarea.org/images/audiocovers/2018_Feb/acov_tid301875_thumb.jpg)

*Artist: Frank Zappa
*Album: Roxy & Elsewhere [live]
*Year: 1974
*Genre: Experimental/Avantgarde Rock
*Country: United States (IMG:http://metalarea.org/forum/style_images/flags/United%20States.png)
*Format: mp3@CBR320kbps
*Size: 159MB

Tracklist:
01. Penguin in Bondage
02. Pygmy Twylyte
03. Dummy Up
04. Village of the Sun
05. Echidna's Arf (Of You)
06. Don't You Ever Wash That Thing?
07. Cheepnis
08. Son of Orange County
09. More Trouble Every Day
10. Be-Bop Tango (Of the Old Jazzmen's Church)
******************************
Total playing time: 1:08:04

(IMG:http://metalarea.org/images/youtube.png)

Technical info
(IMG:http://metalarea.org/images/spectrogram/2018_Feb/2272dc9fbab1343817dbcad4781080c7.png)
Input File: 05 - Echidna\'s Arf (Of You).mp3
Channels : 2
Sample Rate : 44100
Precision : 16-bit
Duration : 00:03:53.19 = 10283855 samples = 17489.5 CDDA sectors
File Size : 9.33M
Bit Rate : 320k
Sample Encoding: MPEG audio (layer I, II or III)
Comments :
Title=Echidna's Arf (Of You)
Artist=Frank Zappa
Album=Roxy & Elsewhere
Tracknumber=05
Year=1974
Genre=Progressive Rock



Register


Thanks:
Go to the top of the page
  Insert nick Quick quote
+Quote Post
 
Start new topic
Replies (1 - 1)
post Feb 12 2018, 19:44:28
Post #2

Правь статус, ####!111
**************
Group: Металариец
Posts: 34,708
Releases: 504
On Forums: 9 years 5 months
Thanks: 26751 time(s)
Russian Federation


Как и почти всегда у Заппы - мастерство вкупе с душевностью зашкаливают.

@320

Register


Thanks:
Go to the top of the page
  Insert nick Quick quote
+Quote Post

Reply to this topicStart new topic
1 User(s) are reading this topic (1 Guests and 0 Anonymous Users)
0 Members:

 



- Lo-Fi Version Support form
Copyrights and abuse reports form
Time is now: 20th November 2018 - 22:22:30