Welcome Guest ( Log In | Register )

> Opera Fantasia - II [ep] (2018), Symphonic/Power Metal
post Feb 12 2018, 19:57:56
Post #1

Восемь Литров
********
Group: Металариец
Posts: 805
Releases: 675
From: Новороссийск
On Forums: 7 years 3 months
Thanks: 11485 time(s)
Russian Federation


(IMG:https://metalarea.org/images/audiocovers/2018_Feb/acov_tid301884_thumb.jpg)

*Artist: Opera Fantasia
*Album: II [ep]
*Year: 2018
*Genre: Symphonic/Power Metal
*Country: Russian Federation (IMG:https://metalarea.org/forum/style_images/flags/Russian%20Federation.png)
*Format: mp3@CBR320kbps
*Size: 41MB

Tracklist:
01. Ветер Времён 04:21
02. Выстрел 04:43
03. Под Дождём 04:27
04. Чёрное и Красное 04:28
******************************
Total playing time: 17:59

Preview 1

Technical info
(IMG:https://metalarea.org/images/spectrogram/2018_Feb/066e9792f2034cfbeae96988f4216e0e.png)
Input File: 01. Ветер Времён.mp3
Channels : 2
Sample Rate : 44100
Precision : 16-bit
Duration : 00:04:21.10 = 11514290 samples = 19582.1 CDDA sectors
File Size : 10.4M
Bit Rate : 320k
Sample Encoding: MPEG audio (layer I, II or III)
Comments :
Title=Ветер Времён
Artist=Opera Fantasia
Album=II
Tracknumber=01
Year=2018
Genre=Symphonic Metal



Register


Go to the top of the page
  Insert nick Quick quote
+Quote Post
 
Start new topic
Replies (1 - 1)
post Feb 17 2018, 14:57:07
Post #2

Перевозчик
**************
Group: Металариец
Posts: 2,754
Releases: 0
On Forums: 10 years 1 month
Thanks: 573 time(s)
Russian Federation


Какаха.

Go to the top of the page
  Insert nick Quick quote
+Quote Post

Reply to this topicStart new topic
1 User(s) are reading this topic (1 Guests and 0 Anonymous Users)
0 Members:

 



- Lo-Fi Version Support form
Copyrights and abuse reports form
Time is now: 21st August 2018 - 22:45:09