Welcome Guest ( Log In | Register )

 
ОтветитьСоздать новую тему
> Organismos - Control Del Miedo (2017), Death Metal/Grindcore
post Feb 12 2018, 19:59:16
Post #1

Правь статус, ####!111
**************
Group: Металариец
Posts: 12,973
Releases: 9229
From: Г.Харьков
On Forums: 6 years 1 week
Thanks: 150048 time(s)
Unknown


(IMG:http://metalarea.org/images/audiocovers/2018_Feb/acov_tid301885_thumb.jpg)

*Artist: Organismos
*Album: Control Del Miedo
*Year: 2017
*Genre: Death Metal/Grindcore
*Country: Colombia (IMG:http://metalarea.org/forum/style_images/flags/Colombia.png)
*Format: mp3@VBR291kbps
*Size: 61MB

Tracklist:
1. Control del miedo 02:04
2. El sentido del existir 01:50
3. La historia como ilusión 04:39
4. El martillo del poder 01:56
5. Programado 01:34
6. Verdades inversas 04:45
7. Tótem 03:41
8. Pensamiento hormiga 01:46
9. Estadios para el poder 03:42
10. Diagnóstico 02:21
11. Malabarista muerto 03:06
******************************
Total playing time: 31:24



Extended info
Scene CD-Rip
Carlos Mario Pérez Guitars, Vocals
Alexis Vélez Drums, Vocals
Alberto Correa Bass, Backing Vocals


Technical info
(IMG:http://metalarea.org/images/spectrogram/2018_Feb/f8371fdb9427f989e39ba7a5a3dab888.png)
Input File: 03-organismos-la_historia_como_ilusion.mp3
Channels : 2
Sample Rate : 44100
Precision : 16-bit
Duration : 00:04:38.55 = 12283879 samples = 20891 CDDA sectors
File Size : 10.2M
Bit Rate : 292k
Sample Encoding: MPEG audio (layer I, II or III)
Comments :
Title=La Historia Como IlusiГіn
Artist=Organismos
Album=Control Del Miedo
Tracknumber=3/11
Year=2017-00-00
Genre=Metal



Register


Вернуться к началу страницы
  Insert nick Quick quote
+Цитировать сообщение

ОтветитьСоздать новую тему
1 User(s) are reading this topic (1 Guests and 0 Anonymous Users)
0 Members:

 



- Lo-Fi Version Support form
Copyrights and abuse reports form
Time is now: 22nd May 2018 - 11:01:54