Welcome Guest ( Log In | Register )

> Releases Upload / Добавление релизов

Добавить релиз тут / Click here to add release
Рекомендованные обменники / Recommended file shares

> Wreck Of The Hesperus - Sediment (2016), Sludge/Funeral Doom Metal
post Feb 12 2018, 21:23:52
Post #1

Два Литра
**
Group: Завсегдатай
Posts: 196
Releases: 23
On Forums: 4 years 3 months
Thanks: 341 time(s)
Serbia


(IMG:http://metalarea.org/images/audiocovers/2018_Feb/acov_tid301886_thumb.jpg)

*Artist: Wreck Of The Hesperus
*Album: Sediment
*Year: 2016
*Genre: Sludge/Funeral Doom Metal
*Country: Ireland (IMG:http://metalarea.org/forum/style_images/flags/Ireland.png)
*Format: mp3@CBR320kbps
*Size: 104MB

Tracklist:
1. Erosion (Death's White Lustre) 20:35
2. All Life in Death (Sediment) 23:56
******************************
Total playing time: 44:31

Technical info
(IMG:http://metalarea.org/images/spectrogram/2018_Feb/5c5976747e1f00fc03ccdf051251bd35.png)
Input File: Wreck Of The Hesperus - Sediment - 01 - Erosion (Death's White Lustre).mp3
Channels : 2
Sample Rate : 44100
Precision : 16-bit
Duration : 00:20:35.21 = 54472937 samples = 92641 CDDA sectors
File Size : 49.7M
Bit Rate : 322k
Sample Encoding: MPEG audio (layer I, II or III)
Comments :
Title=Erosion (Death's White Lustre)
Artist=Wreck Of The Hesperus
Album=Sediment
Tracknumber=1
Year=2016
Genre=Sludge/Funeral Doom Metal



Register


Вернуться к началу страницы
  Insert nick Quick quote
+Цитировать сообщение
 
Создать новую тему
Replies (1 - 2)
post Feb 13 2018, 05:49:19
Post #2

Девять Литров
*********
Group: Металариец
Posts: 905
Releases: 357
From: north korea
On Forums: 7 years 2 months
Thanks: 7566 time(s)
Italy


Preview


Thanks:
Вернуться к началу страницы
  Insert nick Quick quote
+Цитировать сообщение
post Feb 13 2018, 11:40:12
Post #3

Два Литра
**
Group: Завсегдатай
Posts: 196
Releases: 23
On Forums: 4 years 3 months
Thanks: 341 time(s)
Serbia


Forgot about that. Sorry.
Вернуться к началу страницы
  Insert nick Quick quote
+Цитировать сообщение

ОтветитьСоздать новую тему
2 User(s) are reading this topic (2 Guests and 0 Anonymous Users)
0 Members:

 



- Lo-Fi Version Support form
Copyrights and abuse reports form
Time is now: 18th February 2018 - 00:19:36