Welcome Guest ( Log In | Register )

> Wreck Of The Hesperus - Sediment (2016), Sludge/Funeral Doom Metal
post Feb 12 2018, 21:23:52
Post #1

Три Литра
***
Group: Завсегдатай
Posts: 230
Releases: 28
On Forums: 4 years 7 months
Thanks: 451 time(s)
Serbia


(IMG:http://metalarea.org/images/audiocovers/2018_Feb/acov_tid301886_thumb.jpg)

*Artist: Wreck Of The Hesperus
*Album: Sediment
*Year: 2016
*Genre: Sludge/Funeral Doom Metal
*Country: Ireland (IMG:http://metalarea.org/forum/style_images/flags/Ireland.png)
*Format: mp3@CBR320kbps
*Size: 104MB

Tracklist:
1. Erosion (Death's White Lustre) 20:35
2. All Life in Death (Sediment) 23:56
******************************
Total playing time: 44:31

Technical info
(IMG:http://metalarea.org/images/spectrogram/2018_Feb/5c5976747e1f00fc03ccdf051251bd35.png)
Input File: Wreck Of The Hesperus - Sediment - 01 - Erosion (Death's White Lustre).mp3
Channels : 2
Sample Rate : 44100
Precision : 16-bit
Duration : 00:20:35.21 = 54472937 samples = 92641 CDDA sectors
File Size : 49.7M
Bit Rate : 322k
Sample Encoding: MPEG audio (layer I, II or III)
Comments :
Title=Erosion (Death's White Lustre)
Artist=Wreck Of The Hesperus
Album=Sediment
Tracknumber=1
Year=2016
Genre=Sludge/Funeral Doom Metal



Register


Go to the top of the page
  Insert nick Quick quote
+Quote Post
 
Start new topic
Replies (1 - 2)
post Feb 13 2018, 05:49:19
Post #2

Девять Литров
*********
Group: Металариец
Posts: 977
Releases: 370
On Forums: 7 years 6 months
Thanks: 8010 time(s)
North Korea


Preview


Go to the top of the page
  Insert nick Quick quote
+Quote Post
post Feb 13 2018, 11:40:12
Post #3

Три Литра
***
Group: Завсегдатай
Posts: 230
Releases: 28
On Forums: 4 years 7 months
Thanks: 451 time(s)
Serbia


Forgot about that. Sorry.
Go to the top of the page
  Insert nick Quick quote
+Quote Post

Reply to this topicStart new topic
2 User(s) are reading this topic (2 Guests and 0 Anonymous Users)
0 Members:

 



- Lo-Fi Version Support form
Copyrights and abuse reports form
Time is now: 18th June 2018 - 01:10:31