Welcome Guest ( Log In | Register )

> Releases Upload / Добавление релизов

Добавить релиз тут / Click here to add release
Рекомендованные обменники / Recommended file shares

> Dissecdead - Swamp Of Suffering (2015), Old School Death Metal (D4)
post Feb 13 2018, 03:56:58
Post #1

Правь статус, ####!111
**************
Group: Металариец
Posts: 12,182
Releases: 8798
From: Г.Харьков
On Forums: 5 years 9 months
Thanks: 140811 time(s)
Unknown


(IMG:http://metalarea.org/images/audiocovers/2018_Feb/acov_tid301889_thumb.jpg)

*Artist: Dissecdead
*Album: Swamp Of Suffering
*Year: 2015
*Genre: Old School Death Metal
*Country: Germany (IMG:http://metalarea.org/forum/style_images/flags/Germany.png)
*Format: mp3@CBR320kbps
*Size: 122MB

Tracklist:
1. Lost 01:31
2. The Skinner 04:04
3. Swamp of Suffering 05:14
4. Mutant Terror 04:03
5. Zombie 05:18
6. Sadist Lane 05:00
7. Godworm 03:10
8. Shrine of Pestilence 04:03
9. Moribund 01:34
10. Massacre Mankind 03:04
11. Tears of Darkness 06:01
12. Nightcurse 04:53
13. Oblivion 05:32
******************************
Total playing time: 53:27

Preview 1


Extended info
Oliver Reimer Guitars, Bass, Drums
Marco Pecher Vocals (lead)
Sven Martinek Drums



Technical info
(IMG:http://metalarea.org/images/spectrogram/2018_Feb/2cc4b0063f87f9b216e994c83c940b21.png)
Input File: 03 Swamp of Suffering.mp3
Channels : 2
Sample Rate : 44100
Precision : 16-bit
Duration : 00:05:15.17 = 13898997 samples = 23637.8 CDDA sectors
File Size : 12.6M
Bit Rate : 321k
Sample Encoding: MPEG audio (layer I, II or III)
Comments :
Title=Swamp of Suffering
Artist=Dissecdead
Album=Swamp of Suffering
Tracknumber=3
Year=2015



Register


Вернуться к началу страницы
  Insert nick Quick quote
+Цитировать сообщение
 
Создать новую тему
Replies (1 - 1)
post Feb 13 2018, 05:49:12
Post #2

Правь статус, ####!111
**************
Group: Металариец
Posts: 12,182
Releases: 8798
From: Г.Харьков
On Forums: 5 years 9 months
Thanks: 140811 time(s)
Unknown


Register


Вернуться к началу страницы
  Insert nick Quick quote
+Цитировать сообщение

ОтветитьСоздать новую тему
2 User(s) are reading this topic (2 Guests and 0 Anonymous Users)
0 Members:

 



- Lo-Fi Version Support form
Copyrights and abuse reports form
Time is now: 18th February 2018 - 00:23:31