Welcome Guest ( Log In | Register )

> Releases Upload / Добавление релизов

Добавить релиз тут / Click here to add release
Рекомендованные обменники / Recommended file shares

> Silent Empire - Dethronement Of All Icons (2018), Death Metal
post Feb 13 2018, 04:21:56
Post #1

Правь статус, ####!111
**************
Group: Металариец
Posts: 12,223
Releases: 8830
From: Г.Харьков
On Forums: 5 years 9 months
Thanks: 141500 time(s)
Unknown


(IMG:http://metalarea.org/images/audiocovers/2018_Feb/acov_tid301890_thumb.jpg)

*Artist: Silent Empire
*Album: Dethronement Of All Icons
*Year: 2018
*Genre: Death Metal
*Country: Brazil (IMG:http://metalarea.org/forum/style_images/flags/Brazil.png)
*Format: mp3@CBR320kbps
*Size: 78MB

Tracklist:
1. Unique and Primordial 03:00
2. Abolish the Reins of Men 05:58
3. Blessed by Wisdom 04:00
4. Unscathed Before the Unknown 03:13
5. Hail the Legions 02:56
6. I Am the Empire 04:35
7. Conquest the Throne of Blasphemy 05:54
8. Among the Faceless 04:42
******************************
Total playing time: 34:18




Extended info
Israel Horstmann Drums
Aline Iladi Guitars
Ivan Fábio Agliati Vocals, Guitars
See also: ex-Malice Garden, ex-Warmagedoom, ex-Forest of Demons, ex-Night Wolf, ex-Fear, ex-Hallucination, ex-Hammerstorm
Arthur Neto Bass (2017-present)


Technical info
(IMG:http://metalarea.org/images/spectrogram/2018_Feb/f3c7cef8cb642c8090dbcdf99496dd23.png)
Input File: 02 Abolish the Reins of Men.mp3
Channels : 2
Sample Rate : 44100
Precision : 16-bit
Duration : 00:05:58.46 = 15808042 samples = 26884.4 CDDA sectors
File Size : 14.4M
Bit Rate : 321k
Sample Encoding: MPEG audio (layer I, II or III)
Comments :
Title=Abolish the Reins of Men
Artist=Silent Empire
Album=Dethronement of All Icons
Tracknumber=2
Year=2018



Register


Вернуться к началу страницы
  Insert nick Quick quote
+Цитировать сообщение
 
Создать новую тему
Replies (1 - 1)
post Feb 13 2018, 07:57:39
Post #2

Правь статус, ####!111
**************
Group: Металариец
Posts: 12,223
Releases: 8830
From: Г.Харьков
On Forums: 5 years 9 months
Thanks: 141500 time(s)
Unknown


Register


Вернуться к началу страницы
  Insert nick Quick quote
+Цитировать сообщение

ОтветитьСоздать новую тему
1 User(s) are reading this topic (1 Guests and 0 Anonymous Users)
0 Members:

 



- Lo-Fi Version Support form
Copyrights and abuse reports form
Time is now: 25th February 2018 - 16:40:52