Welcome Guest ( Log In | Register )

> Provectus - Existential Delusion (2018), Black Metal
post Feb 13 2018, 04:50:54
Post #1

Правь статус, ####!111
**************
Group: Металариец
Posts: 13,327
Releases: 9404
From: Г.Харьков
On Forums: 6 years 1 month
Thanks: 153479 time(s)
Unknown


(IMG:http://metalarea.org/images/audiocovers/2018_Feb/acov_tid301891_thumb.jpg)

*Artist: Provectus
*Album: Existential Delusion
*Year: 2018
*Genre: Black Metal
*Country: Belgium (IMG:http://metalarea.org/forum/style_images/flags/Belgium.png)
*Format: mp3@CBR320kbps
*Size: 81MB

Tracklist:
01. Passage Into The Void 14:17
02. Pro Semper Absentis 05:16
03. Insania Est Infinitas 06:09
04. Cosmos To Madness 09:46
******************************
Total playing time: 35:28




Extended info
Tempore Anomalia - Vocals/Guitars
Roach - Bass
Obitus - Drums


Technical info
(IMG:http://metalarea.org/images/spectrogram/2018_Feb/fea8d3068d3b756b9140b9f503ba18ba.png)
Input File: 02 Pro Semper Absentis.mp3
Channels : 2
Sample Rate : 44100
Precision : 16-bit
Duration : 00:05:16.76 = 13969292 samples = 23757.3 CDDA sectors
File Size : 12.7M
Bit Rate : 321k
Sample Encoding: MPEG audio (layer I, II or III)
Comments :
Title=Pro Semper Absentis
Artist=Provectus
Album=Existential Delusion
Tracknumber=2
Year=2018



Register


Go to the top of the page
  Insert nick Quick quote
+Quote Post
 
Start new topic
Replies (1 - 1)
post Feb 13 2018, 07:50:51
Post #2

Правь статус, ####!111
**************
Group: Металариец
Posts: 13,327
Releases: 9404
From: Г.Харьков
On Forums: 6 years 1 month
Thanks: 153479 time(s)
Unknown


Register


Thanks:
Go to the top of the page
  Insert nick Quick quote
+Quote Post

Reply to this topicStart new topic
2 User(s) are reading this topic (2 Guests and 0 Anonymous Users)
0 Members:

 



- Lo-Fi Version Support form
Copyrights and abuse reports form
Time is now: 18th June 2018 - 01:13:17