Welcome Guest ( Log In | Register )

 
Reply to this topicStart new topic
> Atrofia - Templo De La Enfermedad [demo] (2017), Thrash Metal
post Feb 13 2018, 06:36:07
Post #1

Правь статус, ####!111
**************
Group: Металариец
Posts: 14,624
Releases: 10089
From: Г.Харьков
On Forums: 6 years 5 months
Thanks: 166264 time(s)
Unknown


(IMG:http://metalarea.org/images/audiocovers/2018_Feb/acov_tid301892_thumb.jpg)

*Artist: Atrofia
*Album: Templo De La Enfermedad [demo]
*Year: 2017
*Genre: Thrash Metal
*Country: Panama (IMG:http://metalarea.org/forum/style_images/flags/Panama.png)
*Format: mp3@CBR320kbps
*Size: 31MB

Tracklist:
1. Intro 01:48 instrumental
2. Tragedia Inminente 04:11
3. Dolor Expansivo 04:31
4. Templo de la Enfermedad 04:52
******************************
Total playing time: 15:22




Extended info
Rodrigo Manzo - Voz/Guitarra
Tony Freire - Guitarra
Alejandro Cubero - Guitarra
Wilhelm Urriola - Bajo/Coros
Adair Dominguez - Batería


Technical info
(IMG:http://metalarea.org/images/spectrogram/2018_Feb/b47c4cc005447cd657197874fe3ff933.png)
Input File: 03 - Dolor Expansivo.mp3
Channels : 2
Sample Rate : 44100
Precision : 16-bit
Duration : 00:04:32.77 = 12029289 samples = 20458 CDDA sectors
File Size : 10.9M
Bit Rate : 320k
Sample Encoding: MPEG audio (layer I, II or III)
Comments :
Title=Dolor Expansivo
Artist=ATROFIA
Album=Templo de la Enfermedad
Tracknumber=3
Year=2017
Genre=Thrash Metal



Register


Go to the top of the page
  Insert nick Quick quote
+Quote Post

Reply to this topicStart new topic
1 User(s) are reading this topic (1 Guests and 0 Anonymous Users)
0 Members:

 



- Lo-Fi Version Support form
Copyrights and abuse reports form
Time is now: 23rd October 2018 - 11:19:24