Welcome Guest ( Log In | Register )

> Правила / Rules

Тут только для чтения лежат низкобитрейтные (<192kbps) релизы, для которых есть аналоги в высокобитрейтных форумах.

Here goes (and stand in read only mode) low bitrate releases (<192kbps) which were already replaced by high bitrate releases in corresponding forums.

> Mormânt De Snagov - Depths Below Space And Existence (2018), Black Metal (D4)
post Feb 13 2018, 07:04:37
Post #1

кручу наждак
**************
Group: Металариец
Posts: 3,317
Releases: 87
From: Самара
On Forums: 8 years 3 months
Thanks: 2479 time(s)
Russian Federation


(IMG:http://metalarea.org/images/audiocovers/2018_Feb/acov_tid301893_thumb.jpg)

*Artist: Mormânt De Snagov
*Album: Depths Below Space And Existence
*Year: 2018
*Genre: Black Metal
*Country: Finland (IMG:http://metalarea.org/forum/style_images/flags/Finland.png)
*Format: mp3@CBR128kbps (IMG:http://metalarea.org/images/bit_low.gif)
*Size: 42MB

Tracklist:
1. Mentor Deceived
2. Never Speak Aloud
3. Resist
4. Stories Untold
5. Battle Neverending
6. You're Next
7. Writhe Infinite
8. The Roots Of Grief
******************************
Total playing time: 45:27

Technical info
(IMG:http://metalarea.org/images/spectrogram/2018_Feb/54bcfc19ea2ed3ae1dc1d30b0a1daa38.png)
Input File: 01. Mentor Deceived.MP3
Channels : 2
Sample Rate : 44100
Precision : 16-bit
Duration : 00:01:39.28 = 4378424 samples = 7446.3 CDDA sectors
File Size : 1.59M
Bit Rate : 128k
Sample Encoding: MPEG audio (layer I, II or III)
Comments :
Title=Mentor Deceived
Artist=MormГўnt De Snagov
Album=Depths Below Space And Existence
Tracknumber=1
Year=2018



Register


Go to the top of the page
  Insert nick Quick quote
+Quote Post
 
Start new topic
Replies (1 - 1)
post Feb 13 2018, 10:02:30
Post #2

Четыре Литра
****
Group: Металариец
Posts: 302
Releases: 7
From: Подольск
On Forums: 9 years 2 months
Thanks: 287 time(s)
Russian Federation


образец творчества
Go to the top of the page
  Insert nick Quick quote
+Quote Post

Причина закрытия (Хогги 27-02-2018):
Closed TopicStart new topic
1 User(s) are reading this topic (1 Guests and 0 Anonymous Users)
0 Members:

 



- Lo-Fi Version Support form
Copyrights and abuse reports form
Time is now: 16th August 2018 - 23:22:05