Welcome Guest ( Log In | Register )

 
Reply to this topicStart new topic
> Aufbruch - Death Metal Für Volk (2018), Death/Black Metal
post Feb 13 2018, 07:47:09
Post #1

Правь статус, ####!111
**************
Group: Металариец
Posts: 13,943
Releases: 9732
From: Г.Харьков
On Forums: 6 years 3 months
Thanks: 159673 time(s)
Unknown


(IMG:http://metalarea.org/images/audiocovers/2018_Feb/acov_tid301895_thumb.jpg)

*Artist: Aufbruch
*Album: Death Metal Für Volk
*Year: 2018
*Genre: Death/Black Metal
*Country: Italy (IMG:http://metalarea.org/forum/style_images/flags/Italy.png)
*Format: mp3@CBR320kbps
*Size: 84MB

Tracklist:
1. Blasting The Void 06:37
2. Branches of Doom 04:37
3. Breeding Pestilence 07:14
4. Corporhate Murder 03:41
5. Husk of Lust 04:54
6. Logo Chasm 05:34
7. Order - Disorder 04:16
8. Scourge Of Equilibrium 03:25
******************************
Total playing time: 40:18




Extended info
Free download from bandcamp


Technical info
(IMG:http://metalarea.org/images/spectrogram/2018_Feb/dbe80d264f37e7d47bac48d0d13b2b96.png)
Input File: AufbrucH - Death Metal F?r Volk - 02 Branches of Doom.mp3
Channels : 2
Sample Rate : 44100
Precision : 16-bit
Duration : 00:04:37.79 = 12250363 samples = 20834 CDDA sectors
File Size : 11.2M
Bit Rate : 321k
Sample Encoding: MPEG audio (layer I, II or III)
Comments :
Title=Branches of Doom
Artist=AufbrucH
Album=Death Metal FГјr Volk
Tracknumber=2
Year=2018



Register


Go to the top of the page
  Insert nick Quick quote
+Quote Post

Reply to this topicStart new topic
1 User(s) are reading this topic (1 Guests and 0 Anonymous Users)
0 Members:

 



- Lo-Fi Version Support form
Copyrights and abuse reports form
Time is now: 19th August 2018 - 13:06:45