Welcome Guest ( Log In | Register )

> Releases Upload / Добавление релизов

Добавить релиз тут / Click here to add release
Рекомендованные обменники / Recommended file shares

 
ОтветитьСоздать новую тему
> Fetid - Sentient Pile Of Amorphous Rot [demo] (2017), Death Metal
post Feb 13 2018, 07:47:17
Post #1

...
Group Icon
Group: S-moderation team
Posts: 5,434
Releases: 1166
On Forums: 6 years 11 months
Thanks: 27148 time(s)
Unknown


(IMG:http://metalarea.org/images/audiocovers/2018_Feb/acov_tid301896_thumb.jpg)

*Artist: Fetid
*Album: Sentient Pile Of Amorphous Rot [demo]
*Year: 2017
*Genre: Death Metal
*Country: United States (IMG:http://metalarea.org/forum/style_images/flags/United%20States.png)
*Format: mp3@ABR247kbps
*Size: 36MB

Tracklist:
1. Rotted 05:35
2. Coalescing Decay 05:07
3. Foul Remnants 04:24
4. Casket Maggot 04:44
******************************
Total playing time: 19:50

Technical info
(IMG:http://metalarea.org/images/spectrogram/2018_Feb/f562f77ef18931e895a88deb08981e69.png)
Input File: 03 Foul Remnants.mp3
Channels : 2
Sample Rate : 44100
Precision : 16-bit
Duration : 00:04:24.23 = 11652455 samples = 19817.1 CDDA sectors
File Size : 8.24M
Bit Rate : 250k
Sample Encoding: MPEG audio (layer I, II or III)
Comments :
Title=Foul Remnants
Artist=Fetid
Album=Sentient Pile Of Amorphous Rot
Tracknumber=03/4
Year=2017
Discnumber=1/1



Register


Вернуться к началу страницы
  Insert nick Quick quote
+Цитировать сообщение

ОтветитьСоздать новую тему
1 User(s) are reading this topic (1 Guests and 0 Anonymous Users)
0 Members:

 



- Lo-Fi Version Support form
Copyrights and abuse reports form
Time is now: 25th February 2018 - 16:42:34