Welcome Guest ( Log In | Register )

 
Reply to this topicStart new topic
> Floridian Winter & Night Falls Haunting - Floridian Winter/Night Falls Haunting [split] (2013), Black Metal/Punk | Black Metal (D7)
post Feb 13 2018, 07:53:34
Post #1

...
Group Icon
Group: S-moderation team
Posts: 7,231
Releases: 1288
On Forums: 7 years 7 months
Thanks: 35405 time(s)
Croatia


(IMG:http://metalarea.org/images/audiocovers/2018_Feb/acov_tid301897_thumb.jpg)

*Artist: Floridian Winter & Night Falls Haunting
*Album: Floridian Winter/Night Falls Haunting [split]
*Year: 2013
*Genre: Black Metal/Punk | Black Metal
*Country: United States (IMG:http://metalarea.org/forum/style_images/flags/United%20States.png) | Australia (IMG:http://metalarea.org/forum/style_images/flags/Australia.png)
*Format: mp3@VBR307kbps
*Size: 25MB

Tracklist:
Floridian Winter:
1. Cold Room 01:03
2. Ulterior 01:10
3. Pick up Your Feet 01:09
Night Falls Haunting:
4. Vomiting Vats of Evil Part I & II 07:55
******************************
Total playing time: 11:17

Extended info
Primal Vomit Records cassette, 150 copies.


Technical info
(IMG:http://metalarea.org/images/spectrogram/2018_Feb/2d4b93cb7944a073893792995a53a50f.png)
Input File: 01 Cold Room.mp3
Channels : 2
Sample Rate : 44100
Precision : 16-bit
Duration : 00:01:03.35 = 2793559 samples = 4750.95 CDDA sectors
File Size : 2.62M
Bit Rate : 331k
Sample Encoding: MPEG audio (layer I, II or III)
Comments :
Title=Cold Room
Artist=Floridian Winter
Album=Floridian Winter / Night Falls Haunting
Tracknumber=01/4
Year=2013
Genre=Black/Punk
Discnumber=1/1



Register


Go to the top of the page
  Insert nick Quick quote
+Quote Post

Reply to this topicStart new topic
1 User(s) are reading this topic (1 Guests and 0 Anonymous Users)
0 Members:

 



- Lo-Fi Version Support form
Copyrights and abuse reports form
Time is now: 22nd October 2018 - 15:33:40