Welcome Guest ( Log In | Register )

 
Reply to this topicStart new topic
> Funerary Temple - Funeral Of Cryptic Spirits [best of/compilation] (2017), Black Metal (D5)
post Feb 13 2018, 08:09:12
Post #1

...
Group Icon
Group: S-moderation team
Posts: 6,229
Releases: 1276
On Forums: 7 years 3 months
Thanks: 31543 time(s)
Unknown


(IMG:http://metalarea.org/images/audiocovers/2018_Feb/acov_tid301898_thumb.jpg)

*Artist: Funerary Temple
*Album: Funeral Of Cryptic Spirits [best of/compilation]
*Year: 2017
*Genre: Black Metal
*Country: Australia (IMG:http://metalarea.org/forum/style_images/flags/Australia.png)
*Format: mp3@VBR308kbps
*Size: 177MB

Tracklist:
1. Insidious Pale Ghost 06:25
2. Eerie Subterranean Mineshaft of Damp Air and Cold Incandescent Walls 05:46
3. Cold Solitary Wander up the Tower 05:29
4. Decension 12:13
5. Odious Vermin 04:09
6. Lerderderg 06:52
7. Forgotten and Left to Rot in a Shallow Grave 04:55
8. Path to Decay 05:51
9. - 01:43
10. -- 03:23
11. = 05:42
12. == 05:47
13. Exterminated Human Existence 12:23
******************************
Total playing time: 1:20:38

Extended info
Hatework Propaganda cassette, 66 copies.
Compilation of all demos:
Track 1-4: Insidious Pale Ghost
Track 5-8: Lerderderg
Track 9-12: Montsalvat
Track 13: Unreleased bonus song


Technical info
(IMG:http://metalarea.org/images/spectrogram/2018_Feb/0e7aa72c1ccd997221c72e633739b952.png)
Input File: 01 Insidious Pale Ghost.mp3
Channels : 2
Sample Rate : 44100
Precision : 16-bit
Duration : 00:06:25.57 = 17003505 samples = 28917.5 CDDA sectors
File Size : 15.4M
Bit Rate : 321k
Sample Encoding: MPEG audio (layer I, II or III)
Comments :
Title=Insidious Pale Ghost
Artist=Funerary Temple
Album=Funeral Of Cryptic Spirits
Tracknumber=01/13
Year=2017
Discnumber=1/1



Register


Go to the top of the page
  Insert nick Quick quote
+Quote Post

Reply to this topicStart new topic
2 User(s) are reading this topic (2 Guests and 0 Anonymous Users)
0 Members:

 



- Lo-Fi Version Support form
Copyrights and abuse reports form
Time is now: 17th June 2018 - 22:43:23