Welcome Guest ( Log In | Register )

> Releases Upload / Добавление релизов

Добавить релиз тут / Click here to add release
Рекомендованные обменники / Recommended file shares

 
ОтветитьСоздать новую тему
> Furdidurke - Furdidurke [demo] (2006), Black Metal/Punk
post Feb 13 2018, 08:16:38
Post #1

...
Group Icon
Group: S-moderation team
Posts: 5,434
Releases: 1166
On Forums: 6 years 11 months
Thanks: 27148 time(s)
Unknown


(IMG:http://metalarea.org/images/audiocovers/2018_Feb/acov_tid301899_thumb.JPG)

*Artist: Furdidurke
*Album: Furdidurke [demo]
*Year: 2006
*Genre: Black Metal/Punk
*Country: United States (IMG:http://metalarea.org/forum/style_images/flags/United%20States.png)
*Format: mp3@VBR250kbps
*Size: 72MB

Tracklist:
1. Demo Songs Recorded April 2006 Live in Black House 22:16
2. Fall 2005 Rehearsals Recorded Live in Black House 17:39
******************************
Total playing time: 39:55

Extended info
Tape released by Klaxon Records. Side B, "Fall 2005 Rehearsals", includes a cover of Pentagram's "The World Will Love Again".


Technical info
(IMG:http://metalarea.org/images/spectrogram/2018_Feb/394a6b878b1060ad90c80e3253f72a03.png)
Input File: 01 Demo Songs Recorded April 2006 Live In Black House.mp3
Channels : 2
Sample Rate : 44100
Precision : 16-bit
Duration : 00:22:16.48 = 58938592 samples = 100236 CDDA sectors
File Size : 43.0M
Bit Rate : 258k
Sample Encoding: MPEG audio (layer I, II or III)
Comments :
Title=Demo Songs Recorded April 2006 Live In Black House
Artist=Furdidurke
Album=Furdidurke
Tracknumber=01/2
Year=2006
Discnumber=1/1



Register


Вернуться к началу страницы
  Insert nick Quick quote
+Цитировать сообщение

ОтветитьСоздать новую тему
1 User(s) are reading this topic (1 Guests and 0 Anonymous Users)
0 Members:

 



- Lo-Fi Version Support form
Copyrights and abuse reports form
Time is now: 25th February 2018 - 16:46:09