Welcome Guest ( Log In | Register )

> Releases Upload / Добавление релизов

Добавить релиз тут / Click here to add release
Рекомендованные обменники / Recommended file shares

> Furdidurke - Furdidurke [best of/compilation] (2010), Black Metal/Punk
post Feb 13 2018, 08:24:22
Post #1

...
Group Icon
Group: S-moderation team
Posts: 5,434
Releases: 1166
On Forums: 6 years 11 months
Thanks: 27148 time(s)
Unknown


(IMG:http://metalarea.org/images/audiocovers/2018_Feb/acov_tid301900_thumb.jpg)

*Artist: Furdidurke
*Album: Furdidurke [best of/compilation]
*Year: 2010
*Genre: Black Metal/Punk
*Country: United States (IMG:http://metalarea.org/forum/style_images/flags/United%20States.png)
*Format: mp3@VBR260kbps
*Size: 92MB

Tracklist:
01. Untitled 27:33
02. Untitled 22:10
******************************
Total playing time: 49:43

Extended info
Discogs
Contains unreleased tracks recorded in 2005 and 2006. Alternate takes of the Klaxon EP songs, new songs and previously unheard rehearsal sessions including rehearsals from the earliest days of the bands existence.


Technical info
(IMG:http://metalarea.org/images/spectrogram/2018_Feb/7a8a1e55c95bf477f6f4d93d677a1ce7.png)
Input File: 01 Untitled.mp3
Channels : 2
Sample Rate : 44100
Precision : 16-bit
Duration : 00:27:33.26 = 72908898 samples = 123995 CDDA sectors
File Size : 54.7M
Bit Rate : 265k
Sample Encoding: MPEG audio (layer I, II or III)
Comments :
Title=Untitled
Artist=Furdidurke
Album=Furdidurke 2010
Tracknumber=01/2
Year=2010
Discnumber=1/1



Register


Вернуться к началу страницы
  Insert nick Quick quote
+Цитировать сообщение
 
Создать новую тему
Replies (1 - 2)
post Feb 13 2018, 15:02:02
Post #2

Три Литра
***
Group: Завсегдатай
Posts: 261
Releases: 5
From: Подольск
On Forums: 8 years 8 months
Thanks: 231 time(s)
Russian Federation


Увидел, что два трека, испугался, но нет, на архивах говорят, что их чутка больше:
1. Native to a Noxious Glow 03:05 instrumental
2. Be a Witness 03:21 instrumental
3. Crosses of No Significance 02:32 instrumental
4. IV 03:32
5. Native to a Noxious Glow 03:14
6. Be a Witness 02:35
7. VII 02:39
8. VIII 01:11
9. IX 01:28
10. X 00:57
11. Native to a Noxious Glow 02:14
12. XII 03:48
13. XIII 01:33
14. XIV 03:46
15. XV 04:01
16. XVI 02:20
17. XVII 02:40
18. XVIII 03:10

а вот ипишка, которая вошла в компиляцию для ознакомления.
Вернуться к началу страницы
  Insert nick Quick quote
+Цитировать сообщение
post Feb 13 2018, 16:42:28
Post #3

Два Литра
**
Group: Завсегдатай
Posts: 111
Releases: 0
On Forums: 4 months 2 days
Thanks: 35 time(s)
United States


Wunderbar! Припанкованный Блэк Метал сыгранный в американском подвале и записанный там же (IMG:style_emoticons/default/20.gif)
Вернуться к началу страницы
  Insert nick Quick quote
+Цитировать сообщение

ОтветитьСоздать новую тему
1 User(s) are reading this topic (1 Guests and 0 Anonymous Users)
0 Members:

 



- Lo-Fi Version Support form
Copyrights and abuse reports form
Time is now: 25th February 2018 - 16:44:29