Welcome Guest ( Log In | Register )

> Releases Upload / Добавление релизов

Добавить релиз тут / Click here to add release
Рекомендованные обменники / Recommended file shares

> Gedrocht - Kerven [demo] (2014), Black Metal
post Feb 13 2018, 08:31:35
Post #1

...
Group Icon
Group: S-moderation team
Posts: 5,320
Releases: 1108
On Forums: 6 years 11 months
Thanks: 26439 time(s)
Unknown


(IMG:http://metalarea.org/images/audiocovers/2018_Feb/acov_tid301901_thumb.jpg)

*Artist: Gedrocht
*Album: Kerven [demo]
*Year: 2014
*Genre: Black Metal
*Country: Netherlands (IMG:http://metalarea.org/forum/style_images/flags/Netherlands.png)
*Format: mp3@VBR261kbps
*Size: 41MB

Tracklist:
01. Untitled 21:48
******************************
Total playing time: 21:48

Extended info
The Throat cassette, undisclosed amount of copies.


Technical info
(IMG:http://metalarea.org/images/spectrogram/2018_Feb/24ca31935e0c8eaac8a673f0e923ed2d.png)
Input File: 01 Untitled.mp3
Channels : 2
Sample Rate : 44100
Precision : 16-bit
Duration : 00:21:48.53 = 57705953 samples = 98139.4 CDDA sectors
File Size : 42.8M
Bit Rate : 261k
Sample Encoding: MPEG audio (layer I, II or III)
Comments :
Title=Untitled
Artist=Gedrocht
Album=Kerven
Tracknumber=01/01
Year=2014
Genre=Rock



Register


Вернуться к началу страницы
  Insert nick Quick quote
+Цитировать сообщение
 
Создать новую тему
Replies (1 - 1)
post Feb 16 2018, 20:21:12
Post #2

Маньяк
**********
Group: Металариец
Posts: 1,442
Releases: 23
From: Spain
On Forums: 10 years 5 months
Thanks: 1092 time(s)
Spain


QUOTE
Вернуться к началу страницы
  Insert nick Quick quote
+Цитировать сообщение

ОтветитьСоздать новую тему
2 User(s) are reading this topic (2 Guests and 0 Anonymous Users)
0 Members:

 



- Lo-Fi Version Support form
Copyrights and abuse reports form
Time is now: 18th February 2018 - 00:22:08