Welcome Guest ( Log In | Register )

> Geistus - Geistus [demo] (2006), Black Metal
post Feb 13 2018, 08:36:25
Post #1

...
Group Icon
Group: S-moderation team
Posts: 6,229
Releases: 1276
On Forums: 7 years 3 months
Thanks: 31545 time(s)
Unknown


(IMG:http://metalarea.org/images/audiocovers/2018_Feb/acov_tid301902_thumb.jpg)

*Artist: Geistus
*Album: Geistus [demo]
*Year: 2006
*Genre: Black Metal
*Country: United States (IMG:http://metalarea.org/forum/style_images/flags/United%20States.png)
*Format: mp3@VBR277kbps
*Size: 22MB

Tracklist:
1. Griefhammer 02:20
2. Swallowed 02:49
3. Broken Unclean Spirit 03:50
4. Geistus 01:58
******************************
Total playing time: 10:57

Technical info
(IMG:http://metalarea.org/images/spectrogram/2018_Feb/14ec9c27d6d17f06f7164c8d9f0121b8.png)
Input File: 02 Swallowed.mp3
Channels : 2
Sample Rate : 44100
Precision : 16-bit
Duration : 00:02:49.09 = 7456869 samples = 12681.8 CDDA sectors
File Size : 5.59M
Bit Rate : 265k
Sample Encoding: MPEG audio (layer I, II or III)
Comments :
Title=Swallowed
Artist=Geistus
Album=Geistus
Tracknumber=02/4
Year=2006
Genre=Black Metal
Discnumber=1/1



Register


Go to the top of the page
  Insert nick Quick quote
+Quote Post
 
Start new topic
Replies (1 - 1)
post Feb 16 2018, 20:20:09
Post #2

Маньяк
**********
Group: Металариец
Posts: 1,481
Releases: 23
From: Spain
On Forums: 10 years 9 months
Thanks: 1117 time(s)
Spain


QUOTE
Go to the top of the page
  Insert nick Quick quote
+Quote Post

Reply to this topicStart new topic
2 User(s) are reading this topic (2 Guests and 0 Anonymous Users)
0 Members:

 



- Lo-Fi Version Support form
Copyrights and abuse reports form
Time is now: 18th June 2018 - 01:12:35