Welcome Guest ( Log In | Register )

 
Reply to this topicStart new topic
> Gestank - Hail Intoxication [demo] (2017), Black Metal
post Feb 13 2018, 08:42:16
Post #1

...
Group Icon
Group: S-moderation team
Posts: 6,479
Releases: 1275
On Forums: 7 years 5 months
Thanks: 32621 time(s)
Croatia


(IMG:http://metalarea.org/images/audiocovers/2018_Feb/acov_tid301903_thumb.jpg)

*Artist: Gestank
*Album: Hail Intoxication [demo]
*Year: 2017
*Genre: Black Metal
*Country: Sweden (IMG:http://metalarea.org/forum/style_images/flags/Sweden.png)
*Format: mp3@VBR250kbps
*Size: 25MB

Tracklist:
1. Whores 02:42
2. Hail Intoxication 02:49
3. Coma-introducing Black Metal 04:56
4. Swirling Rage 03:14
******************************
Total playing time: 13:41



Extended info
Tape released by Cirsium Kollektivet.


Technical info
(IMG:http://metalarea.org/images/spectrogram/2018_Feb/87d4415c3ce04fc380f43052297685a9.png)
Input File: 04 Swirling Rage.mp3
Channels : 2
Sample Rate : 44100
Precision : 16-bit
Duration : 00:03:14.61 = 8582389 samples = 14595.9 CDDA sectors
File Size : 6.17M
Bit Rate : 254k
Sample Encoding: MPEG audio (layer I, II or III)
Comments :
Title=Swirling Rage
Artist=Gestank
Album=Hail Intoxication
Tracknumber=04/4
Year=2017
Discnumber=1/1



Register


Go to the top of the page
  Insert nick Quick quote
+Quote Post

Reply to this topicStart new topic
1 User(s) are reading this topic (1 Guests and 0 Anonymous Users)
0 Members:

 



- Lo-Fi Version Support form
Copyrights and abuse reports form
Time is now: 19th August 2018 - 13:07:10