Welcome Guest ( Log In | Register )

> Releases Upload / Добавление релизов

Добавить релиз тут / Click here to add release
Рекомендованные обменники / Recommended file shares

 
ОтветитьСоздать новую тему
> Golden Dawn & Apeiron - Split Demo 95 [split] (1995), Melodic Black/Gothic Metal | Ambient/Dungeon Synth
post Feb 13 2018, 09:14:26
Post #1

...
Group Icon
Group: S-moderation team
Posts: 5,434
Releases: 1166
On Forums: 6 years 11 months
Thanks: 27148 time(s)
Unknown


(IMG:http://metalarea.org/images/audiocovers/2018_Feb/acov_tid301904_thumb.jpg)

*Artist: Golden Dawn & Apeiron
*Album: Split Demo 95 [split]
*Year: 1995
*Genre: Melodic Black/Gothic Metal | Ambient/Dungeon Synth
*Country: Austria (IMG:http://metalarea.org/forum/style_images/flags/Austria.png) | Austria (IMG:http://metalarea.org/forum/style_images/flags/Austria.png)
*Format: mp3@VBR287kbps
*Size: 187MB

Tracklist:
Golden Dawn:
1. The Spirit Lives On 05:34
2. Until We Meet Again 12:49
3. Leben in Nebel 06:09
4. The Revelation 04:51
5. The Seven Gates of Dreaming 07:35
6. Enigma 03:43
7. As Above so Below (Act I) 05:59
8. Inward Leads The Mystic Path 04:53
Apeiron:
9. Where Mountains Touch the Sky 20:22
10. My Realm Is Not of This World 21:36
11. Hymns to the Glorious Dead 02:57
******************************
Total playing time: 1:36:28



Extended info
Originally released in 1995 on cassette by Impure Creations Records. Re-released in 2017 as 2 x 12" vinyls by Seedstock Records, limited to 500 copies. Vinyl rip.


Technical info
(IMG:http://metalarea.org/images/spectrogram/2018_Feb/d0d31623f6e3950bfab3c914c5ed2620.png)
Input File: 03 Leben In Nebel.mp3
Channels : 2
Sample Rate : 44100
Precision : 16-bit
Duration : 00:06:09.48 = 16293848 samples = 27710.6 CDDA sectors
File Size : 13.6M
Bit Rate : 294k
Sample Encoding: MPEG audio (layer I, II or III)
Comments :
Title=Leben In Nebel
Artist=Golden Dawn
Album=Split Demo 95
Tracknumber=03/11
Year=2017
Discnumber=1/1



Register


Вернуться к началу страницы
  Insert nick Quick quote
+Цитировать сообщение

ОтветитьСоздать новую тему
1 User(s) are reading this topic (1 Guests and 0 Anonymous Users)
0 Members:

 



- Lo-Fi Version Support form
Copyrights and abuse reports form
Time is now: 25th February 2018 - 16:44:17