Welcome Guest ( Log In | Register )

 
ОтветитьСоздать новую тему
> Knelt Rote - Alterity (2018), Black Metal/Grindcore (D4)
post Feb 13 2018, 09:20:07
Post #1

Маньяк
**********
Group: Металариец
Posts: 1,238
Releases: 951
From: Prešov
On Forums: 4 years 1 month
Thanks: 22096 time(s)
Slovakia


(IMG:http://metalarea.org/images/audiocovers/2018_Feb/acov_tid301905_thumb.jpg)

*Artist: Knelt Rote
*Album: Alterity
*Year: 2018
*Genre: Black Metal/Grindcore
*Country: United States (IMG:http://metalarea.org/forum/style_images/flags/United%20States.png)
*Format: mp3@CBR320kbps
*Size: 50MB

Tracklist:
1. Lachesis 02:44
2. Lineage and Dependence 02:54
3. Rumination 03:37
4. Genetic Memory 01:40
5. Othering 04:45
6. Salience 03:25
7. Black Triptych 02:16
******************************
Total playing time: 21:21



Extended info
Nuclear War Now! Productions - ANTI-GOTH 364


Technical info
(IMG:http://metalarea.org/images/spectrogram/2018_Feb/cddaef3478749b240f554105100bbbd8.png)
Input File: 03. Rumination.mp3
Channels : 2
Sample Rate : 44100
Precision : 16-bit
Duration : 00:03:37.26 = 9581034 samples = 16294.3 CDDA sectors
File Size : 8.79M
Bit Rate : 323k
Sample Encoding: MPEG audio (layer I, II or III)
Comments :
Title=Rumination
Artist=Knelt Rote
Album=Alterity
Tracknumber=03/07
Year=2018
Genre=Black Metal
Discnumber=1/1



Register


Вернуться к началу страницы
  Insert nick Quick quote
+Цитировать сообщение

ОтветитьСоздать новую тему
1 User(s) are reading this topic (1 Guests and 0 Anonymous Users)
0 Members:

 



- Lo-Fi Version Support form
Copyrights and abuse reports form
Time is now: 28th May 2018 - 02:32:38