Welcome Guest ( Log In | Register )

> Releases Upload / Добавление релизов

Добавить релиз тут / Click here to add release
Рекомендованные обменники / Recommended file shares

 
ОтветитьСоздать новую тему
> Blitzgeist - Black Visions In The Moonlit Night [demo] (2018), Black Metal
post Feb 13 2018, 09:57:41
Post #1

Маньяк
**********
Group: Металариец
Posts: 1,153
Releases: 886
From: Prešov
On Forums: 3 years 10 months
Thanks: 20333 time(s)
Slovakia


(IMG:http://metalarea.org/images/audiocovers/2018_Feb/acov_tid301906_thumb.jpg)

*Artist: Blitzgeist
*Album: Black Visions In The Moonlit Night [demo]
*Year: 2018
*Genre: Black Metal
*Country: United States (IMG:http://metalarea.org/forum/style_images/flags/United%20States.png)
*Format: mp3@CBR320kbps
*Size: 50MB

Tracklist:
1. Black Visions In the Moonlit Night 06:38
2. Graveyards Under Every Stone 08:13
3. Smoke and Ash 02:46
4. Dark Shadow Above 06:03
******************************
Total playing time: 23:40



Extended info
Hatework, 2018


Technical info
(IMG:http://metalarea.org/images/spectrogram/2018_Feb/0cbdd4bb4cd7fb7947c5399576050e54.png)
Input File: 02. Graveyards Under Every Stone.mp3
Channels : 2
Sample Rate : 44100
Precision : 16-bit
Duration : 00:08:13.27 = 21753075 samples = 36995 CDDA sectors
File Size : 19.8M
Bit Rate : 321k
Sample Encoding: MPEG audio (layer I, II or III)
Comments :
Title=Graveyards Under Every Stone
Artist=Blitzgeist
Album=Black Visions in the Moonlit Night (Demo)
Tracknumber=02/04
Year=2018
Genre=Black Metal



Register


Вернуться к началу страницы
  Insert nick Quick quote
+Цитировать сообщение

ОтветитьСоздать новую тему
2 User(s) are reading this topic (2 Guests and 0 Anonymous Users)
0 Members:

 



- Lo-Fi Version Support form
Copyrights and abuse reports form
Time is now: 18th February 2018 - 00:10:53