Welcome Guest ( Log In | Register )

> Releases Upload / ƒобавление релизов

ƒобавить релиз тут / Click here to add release
–екомендованные обменники / Recommended file shares

 
ќтветить—оздать новую тему
> 明日の叙景 - 過誤の鳥 [ep] (2016), Post-Black Metal
post Feb 13 2018, 10:14:36
Post #1

ћань€к
**********
Group: ћеталариец
Posts: 1,156
Releases: 888
From: Prešov
On Forums: 3 years 10 months
Thanks: 20402 time(s)
Slovakia


(IMG:http://metalarea.org/images/audiocovers/2018_Feb/acov_tid301907_thumb.jpg)

*Artist: 明日の叙景
*Album: 過誤の鳥 [ep]
*Year: 2016
*Genre: Post-Black Metal
*Country: Japan (IMG:http://metalarea.org/forum/style_images/flags/Japan.png)
*Format: mp3@CBR320kbps
*Size: 55MB

Tracklist:
1. 石榴 05:08
2. 名付く暗涙 05:21
3. 自己に対する無関心が生んだ他人への共感 06:43
4. 幸福な旅の人へ 04:08
5. 過誤の鳥 01:44
******************************
Total playing time: 23:04



Technical info
(IMG:http://metalarea.org/images/spectrogram/2018_Feb/33b99867c6a9b3beac657664d3bcbb62.png)
Input File: 04. 幸福な旅の人へ(The Drowned Body).mp3
Channels : 2
Sample Rate : 48000
Precision : 16-bit
Duration : 00:04:08.38 = 11922192 samples ~ 18628.4 CDDA sectors
File Size : 9.98M
Bit Rate : 321k
Sample Encoding: MPEG audio (layer I, II or III)
Comments :
Title=еєЄз¶ПгБ™жЧЕгБЃдЇЇгБЄ(The Drowned Body)
Artist=жШОжЧ•гБЃеПЩжЩѓ(Asunojokei)
Album=йБО虧гБЃй≥•(A Bird In The Fault)
Tracknumber=04/05
Year=2016
Genre=Post-Black Metal



Register


¬ернутьс€ к началу страницы
  Insert nick Quick quote
+÷итировать сообщение

ќтветить—оздать новую тему
1 User(s) are reading this topic (1 Guests and 0 Anonymous Users)
0 Members:

 



- Lo-Fi Version Support form
Copyrights and abuse reports form
Time is now: 25th February 2018 - 16:45:56