Welcome Guest ( Log In | Register )

 
Reply to this topicStart new topic
> Umberlite - Umberlite [ep] (2014), Black Metal/Screamo
post Feb 13 2018, 10:19:55
Post #1

Маньяк
**********
Group: Металариец
Posts: 1,352
Releases: 1048
From: Prešov
On Forums: 4 years 4 months
Thanks: 24150 time(s)
Slovakia


(IMG:http://metalarea.org/images/audiocovers/2018_Feb/acov_tid301908_thumb.jpg)

*Artist: Umberlite
*Album: Umberlite [ep]
*Year: 2014
*Genre: Black Metal/Screamo
*Country: Japan (IMG:http://metalarea.org/forum/style_images/flags/Japan.png)
*Format: mp3@CBR320kbps
*Size: 18MB

Tracklist:
1. 影 02:42
2. 監獄 04:50
******************************
Total playing time: 7:32



Technical info
(IMG:http://metalarea.org/images/spectrogram/2018_Feb/809402fb6b20b6958019ed298680e0cd.png)
Input File: 01. 影.mp3
Channels : 2
Sample Rate : 44100
Precision : 16-bit
Duration : 00:02:42.87 = 7182347 samples = 12214.9 CDDA sectors
File Size : 6.67M
Bit Rate : 328k
Sample Encoding: MPEG audio (layer I, II or III)
Comments :
Title=еЅ±
Artist=umberlite
Album=umberlite
Tracknumber=01/02
Year=2014
Genre=Black Metal / Screamo



Register


Go to the top of the page
  Insert nick Quick quote
+Quote Post

Reply to this topicStart new topic
1 User(s) are reading this topic (1 Guests and 0 Anonymous Users)
0 Members:

 



- Lo-Fi Version Support form
Copyrights and abuse reports form
Time is now: 19th August 2018 - 13:06:31