Welcome Guest ( Log In | Register )

> Releases Upload / Добавление релизов

Добавить релиз тут / Click here to add release
Рекомендованные обменники / Recommended file shares

> Fragile Edge - Dans La Solitude (2018), Depressive Black/Doom Metal/Dark Jazz
post Feb 13 2018, 12:00:31
Post #1

Аннигилятор пивА
Group Icon
Group: V.I.P
Posts: 45,810
Releases: 13680
From: Koenigsberg - TILZIT
On Forums: 11 years 8 months
Thanks: 302701 time(s)
Russian Federation


(IMG:https://metalarea.org/images/audiocovers/2018_Feb/acov_tid301909_thumb.jpg)

*Artist: Fragile Edge
*Album: Dans La Solitude
*Year: 2018
*Genre: Depressive Black/Doom Metal/Dark Jazz
*Country: Russian Federation (IMG:https://metalarea.org/forum/style_images/flags/Russian%20Federation.png)
*Format: mp3@CBR320kbps
*Size: 121MB

Tracklist:
1. Dans La Solitude 59:59
******************************
Total playing time: 59:59



Extended info
instrumental
меланхоличная похороньщина


Technical info
(IMG:https://metalarea.org/images/spectrogram/2018_Feb/c3bdb1ba59fada7a7754dc1f5c6b93a5.png)
Input File: Fragile Edge - Dans La Solitude pt. 3.mp3
Channels : 2
Sample Rate : 44100
Precision : 16-bit
Duration : 00:18:36.16 = 49222656 samples = 83712 CDDA sectors
File Size : 44.7M
Bit Rate : 320k
Sample Encoding: MPEG audio (layer I, II or III)
Comments :
Title=Dans La Solitude pt. 3
Artist=Fragile Edge
Album=Dans La Solitude
Tracknumber=3
Year=2018



Register


Вернуться к началу страницы
  Insert nick Quick quote
+Цитировать сообщение
 
Создать новую тему
Replies (1 - 3)
post Feb 13 2018, 12:43:31
Post #2

Аннигилятор пивА
Group Icon
Group: V.I.P
Posts: 45,810
Releases: 13680
From: Koenigsberg - TILZIT
On Forums: 11 years 8 months
Thanks: 302701 time(s)
Russian Federation


mirror
Register


Thanks:
(2) bc_, Doooomed,
Вернуться к началу страницы
  Insert nick Quick quote
+Цитировать сообщение
post Feb 13 2018, 15:54:26
Post #3

赑屃
**
Group: Завсегдатай
Posts: 169
Releases: 5
From: Луганск
On Forums: 10 months 3 weeks
Thanks: 87 time(s)
Russian Federation


Ну, похоронщины тут нет, а вот депрессивного мелодик-дума, нуар джаза и просто печальной акустики - да, вдоволь. На удивление легко и ненапряжно слушается этот часовой инструментальный монстр..
Вернуться к началу страницы
  Insert nick Quick quote
+Цитировать сообщение
post Feb 14 2018, 07:55:07
Post #4

Восемь Литров
********
Group: Металариец
Posts: 841
Releases: 0
From: Dnipro
On Forums: 9 years 7 months
Thanks: 211 time(s)
Ukraine


Жаль что только инсрументал (IMG:style_emoticons/default/6.gif)
Вернуться к началу страницы
  Insert nick Quick quote
+Цитировать сообщение

ОтветитьСоздать новую тему
1 User(s) are reading this topic (1 Guests and 0 Anonymous Users)
0 Members:

 



- Lo-Fi Version Support form
Copyrights and abuse reports form
Time is now: 25th February 2018 - 16:43:37