Welcome Guest ( Log In | Register )

> Demonomantic - Blessed In Eternal Cruelty (2017), Black/Death Metal
post Feb 13 2018, 12:05:30
Post #1

Маньяк
**********
Group: Металариец
Posts: 1,412
Releases: 1098
From: Prešov
On Forums: 4 years 6 months
Thanks: 25739 time(s)
Slovakia


(IMG:http://metalarea.org/images/audiocovers/2018_Feb/acov_tid301910_thumb.jpg)

*Artist: Demonomantic
*Album: Blessed In Eternal Cruelty
*Year: 2017
*Genre: Black/Death Metal
*Country: Sweden (IMG:http://metalarea.org/forum/style_images/flags/Sweden.png)
*Format: mp3@CBR320kbps
*Size: 66MB

Tracklist:
1. I
2. II
3. III
4. IV
5. V
6. VI
7. VII
8. VIII
9. IX
10. X
******************************
Total playing time: 28:02

Extended info
Final Agony Records - FA69
Vinyl limited to 100 copies


Technical info
(IMG:http://metalarea.org/images/spectrogram/2018_Feb/afe3ad24dd5bb9c571fd1939b5b5e470.png)
Input File: 03. III.mp3
Channels : 2
Sample Rate : 44100
Precision : 16-bit
Duration : 00:03:16.38 = 8660534 samples = 14728.8 CDDA sectors
File Size : 7.96M
Bit Rate : 324k
Sample Encoding: MPEG audio (layer I, II or III)
Comments :
Title=III
Artist=Demonomantic
Album=Blessed in Eternal Cruelty
Tracknumber=03/10
Year=2017
Genre=Black / Death Metal



Register


Go to the top of the page
  Insert nick Quick quote
+Quote Post
 
Start new topic
Replies (1 - 1)
post Feb 16 2018, 20:31:39
Post #2

Маньяк
**********
Group: Металариец
Posts: 1,485
Releases: 23
From: Spain
On Forums: 11 years 1 month
Thanks: 1144 time(s)
Spain


QUOTE
Go to the top of the page
  Insert nick Quick quote
+Quote Post

Reply to this topicStart new topic
1 User(s) are reading this topic (1 Guests and 0 Anonymous Users)
0 Members:

 



- Lo-Fi Version Support form
Copyrights and abuse reports form
Time is now: 23rd October 2018 - 10:46:09