Welcome Guest ( Log In | Register )

> Releases Upload / Добавление релизов

Добавить релиз тут / Click here to add release
Рекомендованные обменники / Recommended file shares

> Demonomantic - Blessed In Eternal Cruelty (2017), Black/Death Metal
post Feb 13 2018, 12:05:30
Post #1

Маньяк
**********
Group: Металариец
Posts: 1,153
Releases: 886
From: Prešov
On Forums: 3 years 10 months
Thanks: 20333 time(s)
Slovakia


(IMG:http://metalarea.org/images/audiocovers/2018_Feb/acov_tid301910_thumb.jpg)

*Artist: Demonomantic
*Album: Blessed In Eternal Cruelty
*Year: 2017
*Genre: Black/Death Metal
*Country: Sweden (IMG:http://metalarea.org/forum/style_images/flags/Sweden.png)
*Format: mp3@CBR320kbps
*Size: 66MB

Tracklist:
1. I
2. II
3. III
4. IV
5. V
6. VI
7. VII
8. VIII
9. IX
10. X
******************************
Total playing time: 28:02

Extended info
Final Agony Records - FA69
Vinyl limited to 100 copies


Technical info
(IMG:http://metalarea.org/images/spectrogram/2018_Feb/afe3ad24dd5bb9c571fd1939b5b5e470.png)
Input File: 03. III.mp3
Channels : 2
Sample Rate : 44100
Precision : 16-bit
Duration : 00:03:16.38 = 8660534 samples = 14728.8 CDDA sectors
File Size : 7.96M
Bit Rate : 324k
Sample Encoding: MPEG audio (layer I, II or III)
Comments :
Title=III
Artist=Demonomantic
Album=Blessed in Eternal Cruelty
Tracknumber=03/10
Year=2017
Genre=Black / Death Metal



Register


Вернуться к началу страницы
  Insert nick Quick quote
+Цитировать сообщение
 
Создать новую тему
Replies (1 - 1)
post Feb 16 2018, 20:31:39
Post #2

Маньяк
**********
Group: Металариец
Posts: 1,442
Releases: 23
From: Spain
On Forums: 10 years 5 months
Thanks: 1092 time(s)
Spain


QUOTE
Вернуться к началу страницы
  Insert nick Quick quote
+Цитировать сообщение

ОтветитьСоздать новую тему
2 User(s) are reading this topic (2 Guests and 0 Anonymous Users)
0 Members:

 



- Lo-Fi Version Support form
Copyrights and abuse reports form
Time is now: 18th February 2018 - 00:06:02