Welcome Guest ( Log In | Register )

> Releases Upload / Добавление релизов

Добавить релиз тут / Click here to add release
Рекомендованные обменники / Recommended file shares

> Crocodile Gabri - Le Mie Cose Stranissime (2018), Avant-Garde/Progressive Metal
post Feb 13 2018, 12:33:25
Post #1

Serial Uploader
Group Icon
Group: V.I.P
Posts: 31,478
Releases: 29810
From: Lithuania
On Forums: 9 years 8 months
Thanks: 342309 time(s)
Lithuania


(IMG:https://metalarea.org/images/audiocovers/2018_Feb/acov_tid301911_thumb.png)

*Artist: Crocodile Gabri
*Album: Le Mie Cose Stranissime
*Year: 2018
*Genre: Avant-Garde/Progressive Metal
*Country: Italy (IMG:https://metalarea.org/forum/style_images/flags/Italy.png)
*Format: mp3@CBR320kbps
*Size: 79MB

Tracklist:
01. Le Mie Cose
02. Ammiraglio
03. Combo
04. Fast Boy
05. Basta Con Questo Copyright
06. TabernacolIl
07. Preoccupandomi Allarmai Madame Cancellier
08. Cambiamo La Società
******************************
Total playing time: 33:16

(IMG:https://metalarea.org/images/youtube.png)

Technical info
(IMG:https://metalarea.org/images/spectrogram/2018_Feb/955cd1f13f0ee449a7988b24f5781b79.png)
Input File: 02. Ammiraglio.mp3
Channels : 2
Sample Rate : 44100
Precision : 16-bit
Duration : 00:04:07.72 = 10924408 samples = 18578.9 CDDA sectors
File Size : 10.3M
Bit Rate : 334k
Sample Encoding: MPEG audio (layer I, II or III)
Comments :
Title=Ammiraglio
Artist=Crocodile Gabri
Album=Le mie cose stranissime
Tracknumber=2
Year=2018
Genre=Metal
Discnumber=1



Register


Thanks:
Вернуться к началу страницы
  Insert nick Quick quote
+Цитировать сообщение
 
Создать новую тему
Replies (1 - 5)
post Feb 13 2018, 12:46:37
Post #2

Аннигилятор пивА
Group Icon
Group: V.I.P
Posts: 45,804
Releases: 13678
From: Koenigsberg - TILZIT
On Forums: 11 years 8 months
Thanks: 302680 time(s)
Russian Federation


хрень какая-то, послуша три трэка, инструменталы, все с разговорами, один по дженту который в шапке, один чисто эмбиент, один какой-то поп-авант-джаз...и все с дебильной итальянской болтовней, и это пол альбома (IMG:style_emoticons/default/crazy.gif) это точно не прог метал, а экспериментальное непойми чего



Thanks:
(1) AHBAnep,
Вернуться к началу страницы
  Insert nick Quick quote
+Цитировать сообщение
post Feb 13 2018, 12:54:56
Post #3

Правь статус, ####!111
**************
Group: Металариец
Posts: 30,441
Releases: 470
On Forums: 8 years 8 months
Thanks: 23395 time(s)
Russian Federation


ЦИТАТА(aesteticvice @ Feb 13 2018, 15:46:37) *
хрень какая-то, послуша три трэка, инструменталы, все с разговорами, один по дженту который в шапке, один чисто эмбиент, один какой-то поп-авант-джаз...и все с дебильной итальянской болтовней и это пол альбома (IMG:style_emoticons/default/crazy.gif)


Если бы ты выложил этот релиз, то нахваливал бы до посинения, хороший релиз и вполне авангардно.

Register


Thanks:
(1) albatross,
Вернуться к началу страницы
  Insert nick Quick quote
+Цитировать сообщение
post Feb 13 2018, 13:17:52
Post #4

Аннигилятор пивА
Group Icon
Group: V.I.P
Posts: 45,804
Releases: 13678
From: Koenigsberg - TILZIT
On Forums: 11 years 8 months
Thanks: 302680 time(s)
Russian Federation


ЦИТАТА(vosmidesijatye @ Feb 13 2018, 11:54:56) *
хороший релиз и вполне авангардно.

(IMG:style_emoticons/default/1488.gif) и в чем там авангард метал? вопрос риторический, все равно ты не слушал

зы
я в следующий раз , ту хрень, что не хотел выкладывать буду выкладывать с подписью, для 80го, чтоб ты не писал ерунду про нахваливание, у тебя заело по ходу везде это писать просто так


Thanks:
Вернуться к началу страницы
  Insert nick Quick quote
+Цитировать сообщение
post Feb 13 2018, 17:19:36
Post #5

Литр
*
Group: Подсевший
Posts: 75
Releases: 0
On Forums: 4 months 4 weeks
Thanks: 19 time(s)
Unknown


ЦИТАТА(aesteticvice @ Feb 13 2018, 14:17:52) *
(IMG:style_emoticons/default/1488.gif) и в чем там авангард метал? вопрос риторический, все равно ты не слушал

зы
я в следующий раз , ту хрень, что не хотел выкладывать буду выкладывать с подписью, для 80го, чтоб ты не писал ерунду про нахваливание, у тебя заело по ходу везде это писать просто так

Лучше вообще ничего не выкладывай (IMG:style_emoticons/default/1488.gif) и так все раньше в сети выложено (IMG:style_emoticons/default/23.gif)


Thanks:
Вернуться к началу страницы
  Insert nick Quick quote
+Цитировать сообщение
post Feb 14 2018, 07:14:53
Post #6

Group: Дух
Posts: 6
Releases: 0
On Forums: 10 months 1 week
Thanks: 0 time(s)
Russian Federation


Пока не слушал, но по превью, по-моему, очень даже ничего
Вернуться к началу страницы
  Insert nick Quick quote
+Цитировать сообщение

ОтветитьСоздать новую тему
2 User(s) are reading this topic (2 Guests and 0 Anonymous Users)
0 Members:

 



- Lo-Fi Version Support form
Copyrights and abuse reports form
Time is now: 25th February 2018 - 12:58:21