Welcome Guest ( Log In | Register )

> Releases Upload / Добавление релизов

Добавить релиз тут / Click here to add release
Рекомендованные обменники / Recommended file shares

 
ОтветитьСоздать новую тему
> In The Name Of The Dead - Chaotic Psychosis [ep] (2018), Death Metal
post Feb 13 2018, 13:26:31
Post #1

Serial Uploader
Group Icon
Group: V.I.P
Posts: 31,385
Releases: 29721
From: Lithuania
On Forums: 9 years 8 months
Thanks: 341391 time(s)
Lithuania


(IMG:https://metalarea.org/images/audiocovers/2018_Feb/acov_tid301914_thumb.jpg)

*Artist: In The Name Of The Dead
*Album: Chaotic Psychosis [ep]
*Year: 2018
*Genre: Death Metal
*Country: United States (IMG:https://metalarea.org/forum/style_images/flags/United%20States.png)
*Format: mp3@CBR320kbps
*Size: 43MB

Tracklist:
01. Infernal Descent 03:14
02. They Came With Machetes 05:07
03. The Hunted 05:04
04. Elusive Catharsis 04:36
05. Sacrificer 02:18
******************************
Total playing time: 20:19



Extended info
Scene-rip


Technical info
(IMG:https://metalarea.org/images/spectrogram/2018_Feb/02ba9221f3396d6b4ecb729069010f4c.png)
Input File: 02-in_the_name_of_the_dead-they_came_with_machetes-5bb72417.mp3
Channels : 2
Sample Rate : 44100
Precision : 16-bit
Duration : 00:05:07.60 = 13565028 samples = 23069.8 CDDA sectors
File Size : 12.3M
Bit Rate : 320k
Sample Encoding: MPEG audio (layer I, II or III)
Comments :
Title=They Came with Machetes
Artist=In the Name of the Dead
Album=Chaotic Psychosis
Tracknumber=2/5
Year=2018
Genre=9



Register


Thanks:
Вернуться к началу страницы
  Insert nick Quick quote
+Цитировать сообщение

ОтветитьСоздать новую тему
2 User(s) are reading this topic (2 Guests and 0 Anonymous Users)
0 Members:

 



- Lo-Fi Version Support form
Copyrights and abuse reports form
Time is now: 18th February 2018 - 00:20:26