Welcome Guest ( Log In | Register )

> Releases Upload / Добавление релизов

Добавить релиз тут / Click here to add release
Рекомендованные обменники / Recommended file shares

 
ОтветитьСоздать новую тему
> Rusted Dawn - Toxic Shock [ep] (2006), Thrash Metal/Hardcore
post Feb 13 2018, 13:36:38
Post #1

Подвал
**************
Group: Металариец
Posts: 11,779
Releases: 6654
From: Far East (Khabarovsk)
On Forums: 9 years 3 weeks
Thanks: 60295 time(s)
Russian Federation


(IMG:http://metalarea.org/images/audiocovers/2018_Feb/acov_tid301915_thumb.jpg)

*Artist: Rusted Dawn
*Album: Toxic Shock [ep]
*Year: 2006
*Genre: Thrash Metal/Hardcore
*Country: Canada (IMG:http://metalarea.org/forum/style_images/flags/Canada.png)
*Format: mp3@CBR320kbps
*Size: 47MB

Tracklist:
1. Power Struggle 03:29
2. Waking Streets 06:14
3. The Enemy 03:48
4. Concrete Cell 12:33
******************************
Total playing time: 26:04

(IMG:http://metalarea.org/images/myspace.png)

Technical info
(IMG:http://metalarea.org/images/spectrogram/2018_Feb/79599588418184968c92a6b614152e75.png)
Input File: 01-Power Struggle.mp3
Channels : 2
Sample Rate : 44100
Precision : 16-bit
Duration : 00:03:29.81 = 9252577 samples = 15735.7 CDDA sectors
File Size : 8.39M
Bit Rate : 320k
Sample Encoding: MPEG audio (layer I, II or III)
Comments :
Title=Power Struggle
Artist=Rusted Dawn
Album=Toxic Shock EP
Tracknumber=1/4
Year=2006
Genre=Thrash Metal
Discnumber=1/1



Register


Вернуться к началу страницы
  Insert nick Quick quote
+Цитировать сообщение

ОтветитьСоздать новую тему
1 User(s) are reading this topic (1 Guests and 0 Anonymous Users)
0 Members:

 



- Lo-Fi Version Support form
Copyrights and abuse reports form
Time is now: 18th February 2018 - 00:04:20