Welcome Guest ( Log In | Register )

> Gnaw Their Tongues - Genocidal Majesty (2018), Black Metal/Noise/Experimental
post Feb 13 2018, 13:40:20
Post #1

Три Литра
***
Group: Завсегдатай
Posts: 231
Releases: 28
On Forums: 4 years 7 months
Thanks: 452 time(s)
Serbia


(IMG:http://metalarea.org/images/audiocovers/2018_Feb/acov_tid301916_thumb.jpg)

*Artist: Gnaw Their Tongues
*Album: Genocidal Majesty
*Year: 2018
*Genre: Black Metal/Noise/Experimental
*Country: Netherlands (IMG:http://metalarea.org/forum/style_images/flags/Netherlands.png)
*Format: mp3@CBR320kbps
*Size: 73MB

Tracklist:
1. Death Leaves The World 03:23
2. Spirits Broken By Swords 02:48
3. Genocidal Majesty 04:09
4. Ten Bodies Hanging 03:47
5. The Doctrine Of Paranoid Seraphims 04:06
6. Cold Oven 04:51
7. The Revival Of Inherited Guilt 04:14
8. To Bear Witness To The Truth 04:00
******************************
Total playing time: 35:52



Technical info
(IMG:http://metalarea.org/images/spectrogram/2018_Feb/7e7e1d44553a639d5d4e172322a04ff1.png)
Input File: 05. The Doctrine of Paranoid Seraphims.mp3
Channels : 2
Sample Rate : 44100
Precision : 16-bit
Duration : 00:04:06.26 = 10859890 samples = 18469.2 CDDA sectors
File Size : 10.0M
Bit Rate : 326k
Sample Encoding: MPEG audio (layer I, II or III)
Comments :
Title=The Doctrine of Paranoid Seraphims
Artist=Gnaw Their Tongues
Album=Genocidal Majesty
Tracknumber=5/8
Year=2018
Genre=avant-garde black metal



Register


Go to the top of the page
  Insert nick Quick quote
+Quote Post
 
Start new topic
Replies (1 - 8)
post Feb 13 2018, 15:05:06
Post #2

Правь статус, ####!111
**************
Group: Металариец
Posts: 32,278
Releases: 486
On Forums: 9 years 2 weeks
Thanks: 24695 time(s)
Russian Federation


@320

Register


Thanks:
Go to the top of the page
  Insert nick Quick quote
+Quote Post
post Feb 13 2018, 17:00:14
Post #3

Три Литра
***
Group: Завсегдатай
Posts: 205
Releases: 0
On Forums: 7 months 3 weeks
Thanks: 75 time(s)
United States


Gnaw Their Tongues и этим все сказано. Морис может и делает. Титульный трэк это то что нужно после тяжелого рабочего дня


Go to the top of the page
  Insert nick Quick quote
+Quote Post
post Feb 13 2018, 23:06:43
Post #4

Три Литра
***
Group: Завсегдатай
Posts: 231
Releases: 28
On Forums: 4 years 7 months
Thanks: 452 time(s)
Serbia


I can agree with that. Mories is great at what he does.
Go to the top of the page
  Insert nick Quick quote
+Quote Post
post Feb 14 2018, 06:28:23
Post #5

стазис эпидерсис
***********
Group: Металариец
Posts: 1,794
Releases: 0
On Forums: 2 years 4 months
Thanks: 1098 time(s)
Unknown


Все по старому?


Thanks:
Go to the top of the page
  Insert nick Quick quote
+Quote Post
post Feb 14 2018, 14:59:45
Post #6

Три Литра
***
Group: Завсегдатай
Posts: 231
Releases: 28
On Forums: 4 years 7 months
Thanks: 452 time(s)
Serbia


Sve po starom. (IMG:style_emoticons/default/smile3.gif)
Go to the top of the page
  Insert nick Quick quote
+Quote Post
post Feb 16 2018, 15:24:55
Post #7

Group: Подсевший
Posts: 25
Releases: 0
On Forums: 1 year 2 weeks
Thanks: 7 time(s)
Unknown


Вещь! (IMG:style_emoticons/default/9.gif)
Go to the top of the page
  Insert nick Quick quote
+Quote Post
post Mar 6 2018, 09:40:22
Post #8

стазис эпидерсис
***********
Group: Металариец
Posts: 1,794
Releases: 0
On Forums: 2 years 4 months
Thanks: 1098 time(s)
Unknown


Разбодяженая наркота, отберите у него инструменты.


Thanks:
Go to the top of the page
  Insert nick Quick quote
+Quote Post
post Apr 8 2018, 14:20:45
Post #9

Group: Подсевший
Posts: 31
Releases: 0
On Forums: 6 months 35 minutes
Thanks: 2 time(s)
Unknown


Thanks for this.


Thanks:
Go to the top of the page
  Insert nick Quick quote
+Quote Post

Reply to this topicStart new topic
2 User(s) are reading this topic (2 Guests and 0 Anonymous Users)
0 Members:

 



- Lo-Fi Version Support form
Copyrights and abuse reports form
Time is now: 21st June 2018 - 20:45:15