Welcome Guest ( Log In | Register )

> И неформату есть предел.

Рэп/хип-хоп/шансон/поп удаляются. Для них есть свои порталы.

> Radiohead - A Moon Shaped Pool (2016), Experimental/Alternative Rock (D10)
post Feb 13 2018, 14:01:45
Post #1

Правь статус, ####!111
**************
Group: Металариец
Posts: 33,665
Releases: 489
On Forums: 9 years 2 months
Thanks: 25623 time(s)
Russian Federation


(IMG:http://metalarea.org/images/audiocovers/2018_Feb/acov_tid301918_thumb.jpg)

*Artist: Radiohead
*Album: A Moon Shaped Pool
*Year: 2016
*Genre: Experimental/Alternative Rock
*Country: United Kingdom (IMG:http://metalarea.org/forum/style_images/flags/United%20Kingdom.png)
*Format: mp3@CBR320kbps
*Size: 135MB

Tracklist:
CD 1
01. Burn The Witch
02. Daydreaming
03. Decks Dark
04. Desert Island Disk
05. Ful Stop
06. Glass Eyes
07. Identikit
08. The Numbers
09. Present Tense
10. Tinker Tailor Soldier Sailor Rich Man Poor Man Beggar Man Thief
11. True Love Waits

CD 2
01. Ill Wind
02. Spectre
******************************
Total playing time: 1:03:22

(IMG:http://metalarea.org/images/youtube.png)

Technical info
(IMG:http://metalarea.org/images/spectrogram/2018_Feb/4c0f53aa5d39e1b0b54fb4d483bc5ba3.png)
Input File: 01 - Burn The Witch.mp3
Channels : 2
Sample Rate : 44100
Precision : 16-bit
Duration : 00:03:41.54 = 9770002 samples = 16615.6 CDDA sectors
File Size : 8.96M
Bit Rate : 323k
Sample Encoding: MPEG audio (layer I, II or III)
Comments :
Title=Burn The Witch
Artist=Radiohead
Album=A Moon Shaped Pool
Tracknumber=01/11
Year=2016
Genre=Alternative
Discnumber=1/1



Register


Go to the top of the page
  Insert nick Quick quote
+Quote Post
 
Start new topic
Replies (1 - 2)
post Feb 13 2018, 15:08:54
Post #2

Правь статус, ####!111
**************
Group: Металариец
Posts: 33,665
Releases: 489
On Forums: 9 years 2 months
Thanks: 25623 time(s)
Russian Federation


@320

Register


Go to the top of the page
  Insert nick Quick quote
+Quote Post
post Feb 14 2018, 17:24:42
Post #3

Шесть Литров
******
Group: Металариец
Posts: 666
Releases: 0
From: Харьков
On Forums: 8 years 10 months
Thanks: 212 time(s)
Ukraine


Альбом неплох, но до лучших работ 1995-2007 гг. не дотягивает прилично. Вообще я у них "Kid A" выделяю, в первую очередь.
Go to the top of the page
  Insert nick Quick quote
+Quote Post

Reply to this topicStart new topic
1 User(s) are reading this topic (1 Guests and 0 Anonymous Users)
0 Members:

 



- Lo-Fi Version Support form
Copyrights and abuse reports form
Time is now: 22nd August 2018 - 02:26:05