Welcome Guest ( Log In | Register )

 
Reply to this topicStart new topic
> GUROniichan - Waste Of Gore [ep] (2018), Goregrind
post Feb 13 2018, 14:35:01
Post #1

Serial Uploader
Group Icon
Group: V.I.P
Posts: 33,302
Releases: 31577
From: Lithuania
On Forums: 10 years 5 months
Thanks: 360753 time(s)
Lithuania


(IMG:https://metalarea.org/images/audiocovers/2018_Feb/acov_tid301919_thumb.jpg)

*Artist: GUROniichan
*Album: Waste Of Gore [ep]
*Year: 2018
*Genre: Goregrind
*Country: Russian Federation (IMG:https://metalarea.org/forum/style_images/flags/Russian%20Federation.png)
*Format: mp3@CBR320kbps
*Size: 16MB

Tracklist:
01. It's Sharky's Turn 00:37
02. Cut 00:52
03. 2914 02:08
04. Cut 01:13
05. Kawaii Gore Planet 01:26
06. Cut 00:33
******************************
Total playing time: 6:49



Technical info
(IMG:https://metalarea.org/images/spectrogram/2018_Feb/3c5ae7d85ff9c962ba37a8752f28acf8.png)
Input File: 03. 2914.mp3
Channels : 2
Sample Rate : 44100
Precision : 16-bit
Duration : 00:02:09.00 = 5689076 samples = 9675.3 CDDA sectors
File Size : 5.25M
Bit Rate : 326k
Sample Encoding: MPEG audio (layer I, II or III)
Comments :
Title=2914
Artist=GUROniichan
Album=Waste of Gore
Tracknumber=3
Year=2018



Register


Thanks:
(2) Rosen, varlam4,
Go to the top of the page
  Insert nick Quick quote
+Quote Post

Reply to this topicStart new topic
1 User(s) are reading this topic (1 Guests and 0 Anonymous Users)
0 Members:

 



- Lo-Fi Version Support form
Copyrights and abuse reports form
Time is now: 20th November 2018 - 22:44:25